Welcome Guest ( Log In | Register )

> Releases Upload / Добавление релизов

Добавить релиз тут / Click here to add release
Рекомендованные обменники / Recommended file shares

> Corpus Delicti - Break Everything (2018), Thrash Metal
post Jul 12 2018, 15:12:06
Post #1

Правь статус, ####!111
**************
Group: Металариец
Posts: 13,706
Releases: 9600
From: Г.Харьков
On Forums: 6 years 2 months
Thanks: 157461 time(s)
Unknown


(IMG:https://metalarea.org/images/audiocovers/2018_Jul/acov_tid308126_thumb.jpg)

*Artist: Corpus Delicti
*Album: Break Everything
*Year: 2018
*Genre: Thrash Metal
*Country: Switzerland (IMG:https://metalarea.org/forum/style_images/flags/Switzerland.png)
*Format: mp3@CBR320kbps
*Size: 62MB

Tracklist:
01. Break Everything
02. Rising Darkness
03. Chaos Prevailing
04. Chose Your Grave
05. Blinded by Rage
06. War
07. Inquisition
******************************
Total playing time: 29:22



Extended info
Sileno Püntener - Bass & Vocals
Tiziano Iannuzzo - Guitar
Manuel Ehrismann - Guitar
Simon Bommeli - Drums


Technical info
(IMG:https://metalarea.org/images/spectrogram/2018_Jul/71ae28eb195240054eefa16d534b0328.png)
Input File: 03. Chaos Preyailing.mp3
Channels : 2
Sample Rate : 44100
Precision : 16-bit
Duration : 00:03:47.04 = 10012552 samples = 17028.1 CDDA sectors
File Size : 9.20M
Bit Rate : 324k
Sample Encoding: MPEG audio (layer I, II or III)
Comments :
Title=Chaos Preyailing
Artist=Corpus Delicti
Album=Break Everything
Tracknumber=3
Genre=Метал
Discnumber=1



Register


Go to the top of the page
  Insert nick Quick quote
+Quote Post
 
Start new topic
Replies (1 - 2)
post Jul 13 2018, 03:51:34
Post #2

Правь статус, ####!111
**************
Group: Металариец
Posts: 13,706
Releases: 9600
From: Г.Харьков
On Forums: 6 years 2 months
Thanks: 157461 time(s)
Unknown


Cloud Mail 320
Register


Go to the top of the page
  Insert nick Quick quote
+Quote Post
post Jul 13 2018, 07:01:58
Post #3

И Ван Дамм По Делам Вашим!
**************
Group: Металариец
Posts: 15,795
Releases: 27
On Forums: 10 years 3 weeks
Thanks: 8377 time(s)
Honduras


По превьюхе мне Имбецилов напомнили.
Go to the top of the page
  Insert nick Quick quote
+Quote Post

Reply to this topicStart new topic
1 User(s) are reading this topic (1 Guests and 0 Anonymous Users)
0 Members:

 



- Lo-Fi Version Support form
Copyrights and abuse reports form
Time is now: 23rd July 2018 - 18:16:50