Welcome Guest ( Log In | Register )

> Dispirit - Enantiodromian Birth [demo] (2018), Black/Doom Metal (D6)
post Jul 12 2018, 17:18:53
Post #1

Маньяк
**********
Group: Металариец
Posts: 1,406
Releases: 1094
From: Prešov
On Forums: 4 years 6 months
Thanks: 25602 time(s)
Slovakia


(IMG:http://metalarea.org/images/audiocovers/2018_Jul/acov_tid308134_thumb.jpg)

*Artist: Dispirit
*Album: Enantiodromian Birth [demo]
*Year: 2018
*Genre: Black/Doom Metal
*Country: United States (IMG:http://metalarea.org/forum/style_images/flags/United%20States.png)
*Format: mp3@CBR320kbps
*Size: 104MB

Tracklist:
1. Besotted by Feral Whims 21:09
2. Golden Scar 22:17
******************************
Total playing time: 43:26



Technical info
(IMG:http://metalarea.org/images/spectrogram/2018_Jul/fba94d68a006b7d7d8ba84fb1fb03cf6.png)
Input File: 01. Besotted by Feral Whims.mp3
Channels : 2
Sample Rate : 44100
Precision : 16-bit
Duration : 00:21:09.15 = 55969691 samples = 95186.5 CDDA sectors
File Size : 50.9M
Bit Rate : 321k
Sample Encoding: MPEG audio (layer I, II or III)
Comments :
Title=Besotted by Feral Whims
Artist=Dispirit
Album=Enantiodromian Birth
Tracknumber=01/02
Year=2018
Genre=Black Metal



Register


Go to the top of the page
  Insert nick Quick quote
+Quote Post
 
Start new topic
Replies (1 - 1)
post Jul 13 2018, 10:01:37
Post #2

Group: Дух
Posts: 1
Releases: 0
From: Украина
On Forums: 3 months 5 days
Thanks: 0 time(s)
Ukraine


Супер!
Go to the top of the page
  Insert nick Quick quote
+Quote Post

Reply to this topicStart new topic
1 User(s) are reading this topic (1 Guests and 0 Anonymous Users)
0 Members:

 



- Lo-Fi Version Support form
Copyrights and abuse reports form
Time is now: 18th October 2018 - 01:47:54