Welcome Guest ( Log In | Register )

> Releases Upload / Добавление релизов

Добавить релиз тут / Click here to add release
Рекомендованные обменники / Recommended file shares

> Mary Cries Red - Unholy Slaughter [ep] (2018), Slamming Brutal Death Metal
post Jul 14 2018, 00:25:32
Post #1

Аннигилятор пивА
Group Icon
Group: V.I.P
Posts: 47,445
Releases: 14300
From: Koenigsberg - TILZIT
On Forums: 12 years 1 month
Thanks: 316615 time(s)
Russian Federation


(IMG:http://metalarea.org/images/audiocovers/2018_Jul/acov_tid308183_thumb.jpg)

*Artist: Mary Cries Red
*Album: Unholy Slaughter [ep]
*Year: 2018
*Genre: Slamming Brutal Death Metal
*Country: United States (IMG:http://metalarea.org/forum/style_images/flags/United%20States.png)
*Format: mp3@CBR320kbps
*Size: 47MB

Tracklist:
1. Belial 01:17
2. Maggot Infested Swing 03:21
3. Diabolus 03:10
4. Unholy Slaughter 03:36
5. Lacerations 03:05
6. Splattered Entrails 04:03
7. Erase Mankind 03:12
******************************
Total playing time: 21:44




Extended info
Josh Allen - Bass
Matthew Farrell - Guitars
Zack Mucha - Guitars
Bernie Bungenstock - Vocals (2012-present)
Trevor Gilespie - Drums (2015-present)




Technical info
(IMG:http://metalarea.org/images/spectrogram/2018_Jul/79a41d280878e05438c99b1ca711b3eb.png)
Input File: 02. Maggot Infested Swing.mp3
Channels : 2
Sample Rate : 44100
Precision : 16-bit
Duration : 00:03:21.57 = 8889281 samples = 15117.8 CDDA sectors
File Size : 8.18M
Bit Rate : 325k
Sample Encoding: MPEG audio (layer I, II or III)
Comments :
Title=Maggot Infested Swing
Artist=Mary Cries Red
Album=Unholy Slaughter
Tracknumber=2
Genre=Метал
Discnumber=1



Register


Go to the top of the page
  Insert nick Quick quote
+Quote Post
 
Start new topic
Replies (1 - 2)
post Jul 14 2018, 07:42:19
Post #2

Девять Литров
*********
Group: Металариец
Posts: 982
Releases: 0
On Forums: 7 years 2 months
Thanks: 413 time(s)
Unknown


Not usually a fan of "brootal" death, but this sounds good - much less like a bunch of farmyard animals than most.
Go to the top of the page
  Insert nick Quick quote
+Quote Post
post Jul 14 2018, 22:11:44
Post #3

Crush The Enemies
**************
Group: Металариец
Posts: 4,101
Releases: 0
From: Moscow
On Forums: 8 years 10 months
Thanks: 2071 time(s)
Russian Federation



Особого слэма не услышал,да и брутал какой-то дохлый моментами проскакивает (IMG:style_emoticons/default/22.gif)
Go to the top of the page
  Insert nick Quick quote
+Quote Post

Reply to this topicStart new topic
1 User(s) are reading this topic (1 Guests and 0 Anonymous Users)
0 Members:

 



- Lo-Fi Version Support form
Copyrights and abuse reports form
Time is now: 23rd July 2018 - 18:27:33