Welcome Guest ( Log In | Register )

> Diedred - Damnation's Eve (2018), Old School Thrash/Death Metal
post Jul 14 2018, 21:27:28
Post #1

Аннигилятор пивА
Group Icon
Group: V.I.P
Posts: 49,563
Releases: 15326
From: Koenigsberg - TILZIT
On Forums: 12 years 4 months
Thanks: 334141 time(s)
Russian Federation


(IMG:http://metalarea.org/images/audiocovers/2018_Jul/acov_tid308209_thumb.png)

*Artist: Diedred
*Album: Damnation's Eve
*Year: 2018
*Genre: Old School Thrash/Death Metal
*Country: Canada (IMG:http://metalarea.org/forum/style_images/flags/Canada.png)
*Format: mp3@CBR320kbps
*Size: 117MB

Tracklist:
01. Burn 04:43
02. All Crashes Down 03:42
03. Corrupted Teachings 03:29
04. In the Eye of the Destroyer 04:42
05. Hammer of the Gods 04:20
06. Eaten 03:16
07. Just Two Bullets 04:15
08. The Face in the Window 04:09
09. Mirrored Act 06:35
10. Out from Emptiness 05:54
11. Nothing Head 03:42
12. Damnation's Eve 02:14
******************************
Total playing time: 51:01



Extended info
Marlo Tetzlaff - Guitars
Paul Fayant - Guitars (Necronaut, ex-Toxic Earth)
X - Bass
Brett Watt - Drums (Necronaut, ex-Toxic Earth)
Steve March - Vocals




Technical info
(IMG:http://metalarea.org/images/spectrogram/2018_Jul/459cbe595d3f87851daa8749f1901b33.png)
Input File: 03. Corrupted Teachings.mp3
Channels : 2
Sample Rate : 44100
Precision : 16-bit
Duration : 00:03:29.20 = 9225720 samples = 15690 CDDA sectors
File Size : 8.46M
Bit Rate : 324k
Sample Encoding: MPEG audio (layer I, II or III)
Comments :
Title=Corrupted Teachings
Artist=Diedred
Album=Damnation's Eve
Tracknumber=3
Genre=Метал
Discnumber=1



Register


Go to the top of the page
  Insert nick Quick quote
+Quote Post
 
Start new topic
Replies (1 - 1)
post Jul 15 2018, 04:28:19
Post #2

Аннигилятор пивА
Group Icon
Group: V.I.P
Posts: 49,563
Releases: 15326
From: Koenigsberg - TILZIT
On Forums: 12 years 4 months
Thanks: 334141 time(s)
Russian Federation


MIRROR
Register




Thanks:
(1) Necroeire,
Go to the top of the page
  Insert nick Quick quote
+Quote Post

Reply to this topicStart new topic
1 User(s) are reading this topic (1 Guests and 0 Anonymous Users)
0 Members:

 



- Lo-Fi Version Support form
Copyrights and abuse reports form
Time is now: 23rd October 2018 - 11:08:55