Welcome Guest ( Log In | Register )

> 

Здесь релизы с живыми прямыми ссылками на lossless

> Toxik - III Works [compilation] (2018), Technical Speed/Thrash Metal (D6)
post Jul 16 2018, 12:53:43
Post #1

Аннигилятор пивА
Group Icon
Group: V.I.P
Posts: 52,432
Releases: 16544
From: Koenigsberg - TILZIT
On Forums: 16 years 8 months
Thanks: 370392 time(s)
Russian Federation


(IMG:https://metalarea.org/images/audiocovers/2018_Jul/acov_tid308269_thumb.jpg)

*Artist: Toxik
*Album: III Works [compilation]
*Year: 2018
*Genre: Technical Speed/Thrash Metal
*Country: United States (IMG:https://metalarea.org/forum/style_images/flags/United%20States.png)
*Format: mp3@CBR320kbps
*Size: 236MB

Tracklist:
Disc 1
01. Too Late 03:20
02. Program Insertion 03:58
03. Crooked Crosses 05:17
04. Subverter 04:31
05. In Humanity 02:38
06. Lunacy's Fringe (Instrumental) 03:42
Disc 2
07. Stand Up 03:51
08. Breaking Clas$ 03:41
09. Psyop 04:57
10. Anthem 04:22
11. Upside Down 03:16
12. Dreaming in Chrome (Instrumental) 01:43
Disc 3
13. Kinetic Closure 03:45
14. Spontaneous 04:49
15. Heart Attack 03:40
16. Greed 04:18
17. False Prophets 02:17
18. Think This 04:55
19. Social Overload 03:55
20. Shotgun Logic 05:40
21. World Circus 04:37
22. No Rest for the Wicked 03:38
******************************
Total playing time: 1:26:50




Extended info
+COVERS
WORKS I - In Humanity (2014)
WORKS II - Breaking Clas$ (2017)
WORKS III - Kinetic Closure (2018)
According to a small note delivered with the cd: "Kinetic Closure is a live in studio recording where as little production and processing was used. Specifically the legacy tracks are 2 Guitars, Bass, Drums and one Vocal with 95% of all performances being 1st takes... some solos and harmony back ups were added but sparingly. It's not supposed to be glossy.. its the Toxik 2017/18 line up as raw as we can be using modern recording equipment." (sic)

Josh Christian - Guitars (1985-1992, 2007, 2013-present) See also: ex-Lucertola
Jim DeMaria - Drums (2016-present) See also: Whiplash, ex-Riphouse, Dukes, Gunfire-N-Sodomy, Planet Piss, Poois, Screwface, ex-Generation Kill, ex-Merauder, ex-Demolition Hammer, ex-FreeBass
Shane Boulos - Bass (2017-present) See also: Slam One Down, ex-Delian League, ex-Sicks Deep, ex-Swear on Your Life
Ron Iglesias - Vocals, Guitars (2018-present) See also: Paralysis, Xenophile, ex-Abstraction

Josh Christian - Guitars
Jim DeMaria - Drums (discs 2-3)
Shane Boulos - Bass (discs 2-3)
Ron Iglesias - Vocals (disc 3)
Mike Sanders - Vocals (disc 1)
Charles Sabin - Vocals (disc 2)
Bill Bodily - Bass (disc 1)
Jason Bittner - Drums (disc 1)


Technical info
(IMG:https://metalarea.org/images/spectrogram/2018_Jul/a87f93df9708c1e84af56b0f5fac92b0.png)
Input File: 03 Heart Attack.mp3
Channels : 2
Sample Rate : 44100
Precision : 16-bit
Duration : 00:03:40.54 = 9725858 samples = 16540.6 CDDA sectors
File Size : 9.04M
Bit Rate : 328k
Sample Encoding: MPEG audio (layer I, II or III)
Comments :
Title=Heart Attack
Artist=Toxik
Album=III Works CD3
Tracknumber=3/10
Year=2018
Genre=Thrash Metal



Register


Go to the top of the page
  Insert nick Quick quote
+Quote Post
 
Start new topic
Replies (1 - 6)
post Jul 17 2018, 04:17:12
Post #2

Аннигилятор пивА
Group Icon
Group: V.I.P
Posts: 52,432
Releases: 16544
From: Koenigsberg - TILZIT
On Forums: 16 years 8 months
Thanks: 370392 time(s)
Russian Federation


MIRROR
Register


Go to the top of the page
  Insert nick Quick quote
+Quote Post
post Jul 17 2018, 04:52:03
Post #3

Маньяк
**********
Group: Металариец
Posts: 1,060
Releases: 0
From: China
On Forums: 15 years 1 month
Thanks: 819 time(s)
Bulgaria


quite a lot of new material; there are six tracks altogether that haven't been heard before. The "In Humanity" songs are by far the best part as they are the closest to the band's earlier recordings. An interesting package although the guys should pull themselves together and produce a wholesome full-length


Thanks:
Go to the top of the page
  Insert nick Quick quote
+Quote Post
post Jul 21 2018, 11:17:26
Post #4

hearer & reader
**************
Group: Металариец
Posts: 10,537
Releases: 226
From: Moscow
On Forums: 15 years 5 months
Thanks: 13021 time(s)
Russian Federation


Да, новый состав готов к великим свершениям, коих от них и ждём..
Go to the top of the page
  Insert nick Quick quote
+Quote Post
post Apr 24 2019, 19:47:43
Post #5

железный нечеловек
**********
Group: Металариец
Posts: 1,437
Releases: 3
From: Уфа
On Forums: 13 years 9 months
Thanks: 532 time(s)
Russian Federation


Все ссылки поудаляли
Go to the top of the page
  Insert nick Quick quote
+Quote Post
post Jan 11 2021, 15:50:43
Post #6

Правь статус, ####!111
Group Icon
Group: S-moderation team
Posts: 22,058
Releases: 1443
On Forums: 11 years 11 months
Thanks: 116355 time(s)
Unknown


Register


Go to the top of the page
  Insert nick Quick quote
+Quote Post
post Aug 7 2022, 06:50:17
Post #7

Мегаманьяк
***********
Group: Металариец
Posts: 1,627
Releases: 0
On Forums: 13 years 11 months
Thanks: 688 time(s)
South Korea


Moldavite's FLAC above still works. Thanks.

For those who would need 'lossy' versions...

1. 320 kbps with scans from the web:
Register


2. Each track previewable or downloadable at 320 kbps for free if you want to preview or miss some tracks:
Register


[All credits go to the band and the posters].


Thanks:
Go to the top of the page
  Insert nick Quick quote
+Quote Post

Reply to this topicStart new topic
1 User(s) are reading this topic (1 Guests and 0 Anonymous Users)
0 Members:

 



- Lo-Fi Version Support form
Copyrights and abuse reports form
Time is now: 9th February 2023 - 14:26:12