Welcome Guest ( Log In | Register )

> Releases Upload / Добавление релизов

Добавить релиз тут / Click here to add release
Рекомендованные обменники / Recommended file shares

> From Flesh - Extinction [ep] (2018), Symphonic/Melodic Death Metal
post Yesterday, 07:41:20
Post #1

Аннигилятор пивА
Group Icon
Group: V.I.P
Posts: 47,445
Releases: 14300
From: Koenigsberg - TILZIT
On Forums: 12 years 1 month
Thanks: 316614 time(s)
Russian Federation


(IMG:https://metalarea.org/images/audiocovers/2018_Jul/acov_tid308504_thumb.jpg)

*Artist: From Flesh
*Album: Extinction [ep]
*Year: 2018
*Genre: Symphonic/Melodic Death Metal
*Country: Canada (IMG:https://metalarea.org/forum/style_images/flags/Canada.png)
*Format: mp3@CBR320kbps
*Size: 45MB

Tracklist:
1. The Monarch (Instrumental) 01:30
2. Holy Terra 04:36
3. Tyrammides 02:55
4. A Chronicler At The End Of Time 04:17
5. Extinction 03:29
6. Acheron (Instrumental) 02:22
******************************
Total playing time: 19:09




Technical info
(IMG:https://metalarea.org/images/spectrogram/2018_Jul/79e6887f1dad0ed0e04be8cf13f4ca56.png)
Input File: From Flesh - Extinction -EP- - 03 Tyrammides.mp3
Channels : 2
Sample Rate : 44100
Precision : 16-bit
Duration : 00:02:55.32 = 7731480 samples = 13148.8 CDDA sectors
File Size : 7.11M
Bit Rate : 324k
Sample Encoding: MPEG audio (layer I, II or III)
Comments :
Title=Tyrammides
Artist=From Flesh
Album=Extinction -EP-
Tracknumber=3
Year=2018



Register


Thanks:
Go to the top of the page
  Insert nick Quick quote
+Quote Post
 
Start new topic
Replies (1 - 1)
post Yesterday, 20:18:54
Post #2

Group: Подсевший
Posts: 17
Releases: 0
On Forums: 8 years 1 month
Thanks: 1 time(s)
Unknown


хрень-непонятно-какая...
Go to the top of the page
  Insert nick Quick quote
+Quote Post

Reply to this topicStart new topic
1 User(s) are reading this topic (1 Guests and 0 Anonymous Users)
0 Members:

 



- Lo-Fi Version Support form
Copyrights and abuse reports form
Time is now: 23rd July 2018 - 18:25:27