Welcome Guest ( Log In | Register )

> Losa - Mastrucatum [ep] (2018), Black Metal/Neofolk
post Jul 24 2018, 16:36:57
Post #1

Мегаманьяк
***********
Group: Металариец
Posts: 1,961
Releases: 1552
From: Praha
On Forums: 6 years 21 hours
Thanks: 39001 time(s)
Czech Republic


(IMG:http://metalarea.org/images/audiocovers/2018_Jul/acov_tid308578_thumb.jpg)

*Artist: Losa
*Album: Mastrucatum [ep]
*Year: 2018
*Genre: Black Metal/Neofolk
*Country: Italy (IMG:http://metalarea.org/forum/style_images/flags/Italy.png)
*Format: mp3@CBR320kbps
*Size: 40MB

Tracklist:
1. S'Essida 01:42
2. Mastrucatum 05:15
3. Losa (Mastrucatum II) 04:26
4. Allumiendi (Moonspell cover) 04:11
******************************
Total playing time: 15:34



Extended info
Third I Rex
Members of Simulacro, Progenie Terrestre Pura, Vultur.


Technical info
(IMG:http://metalarea.org/images/spectrogram/2018_Jul/9d66b5c9dc8151049daf67bf38b2a842.png)
Input File: 02. Mastrucatum.mp3
Channels : 2
Sample Rate : 44100
Precision : 16-bit
Duration : 00:05:15.16 = 13898468 samples = 23636.9 CDDA sectors
File Size : 12.7M
Bit Rate : 322k
Sample Encoding: MPEG audio (layer I, II or III)
Comments :
Title=Mastrucatum
Artist=Losa
Album=Mastrucatum
Tracknumber=02/04
Year=2018
Genre=Black Metal



Register


Go to the top of the page
  Insert nick Quick quote
+Quote Post
 
Start new topic
Replies (1 - 5)
post Jul 25 2018, 08:13:56
Post #2

Пять Литров
*****
Group: Металариец
Posts: 426
Releases: 0
From: г.Таганрог
On Forums: 13 years 11 months
Thanks: 82 time(s)
Russian Federation


А что по поводу альбома говорит Юрий Лоза?
(IMG:https://s.mediasole.ru/cache/content/data/images/963/963064/original.jpg)


Thanks:
Go to the top of the page
  Insert nick Quick quote
+Quote Post
post Jul 25 2018, 08:15:53
Post #3

Аннигилятор пивА
Group Icon
Group: V.I.P
Posts: 52,360
Releases: 16550
From: Koenigsberg - TILZIT
On Forums: 13 years 10 months
Thanks: 364726 time(s)
Russian Federation


(IMG:style_emoticons/default/t1518.gif)
«80 процентов того, что выложено на «metalarea.org», то есть metal, слушать невозможно. Потому что это сыграно и спето плохо. В то время это все воспринималось, все нравилось. Митолисты гитару не настроили за всю жизнь ни разу, а вокалисты ни в одну ноту не попали ни разу, ну что поделаешь. Метал как тогда не умели играть, так и сейчас не умеют. Ну, так случилось». Лоза


Go to the top of the page
  Insert nick Quick quote
+Quote Post
post Jul 25 2018, 08:48:25
Post #4

Маньяк
**********
Group: Металариец
Posts: 1,266
Releases: 0
From: украина г.Мелитополь
On Forums: 12 years 2 months
Thanks: 914 time(s)
Ukraine


Go to the top of the page
  Insert nick Quick quote
+Quote Post
post Jul 25 2018, 09:04:29
Post #5

Правь статус (ну неее... лень-матушка)
**************
Group: Металариец
Posts: 12,520
Releases: 0
From: Киев
On Forums: 12 years 2 months
Thanks: 7440 time(s)
Unknown


ЦИТАТА(aesteticvice @ Jul 25 2018, 10:15:53) *
«80 процентов того, что выложено на «metalarea.org», то есть metal, слушать невозможно. Потому что это сыграно и спето плохо. В то время это все воспринималось, все нравилось. Митолисты гитару не настроили за всю жизнь ни разу, а вокалисты ни в одну ноту не попали ни разу, ну что поделаешь. Метал как тогда не умели играть, так и сейчас не умеют. Ну, так случилось». Лоза
... но поскольку эти итальянцы вдохновлялись, очевидно, моим творчеством, к ним претензий нет, мои люди.
Надо будет им диск "Плот" с автографом отправить (IMG:style_emoticons/default/gop_spb.gif)
Или не отправить.... (думает вслух) ...расходы, опять-таки, лишние...
А, невелики цацы, пусть сами за диском приезжают, что, я, слон - всем диски отправлять
. (IMG:style_emoticons/default/nyyy.gif)


Thanks:
Go to the top of the page
  Insert nick Quick quote
+Quote Post
post Jul 25 2018, 13:59:37
Post #6

Самый Тихий Час
**************
Group: Металариец
Posts: 5,895
Releases: 2
On Forums: 10 years 4 months
Thanks: 2695 time(s)
Unknown


О Лоза! Наканец та!
Go to the top of the page
  Insert nick Quick quote
+Quote Post

Reply to this topicStart new topic
2 User(s) are reading this topic (2 Guests and 0 Anonymous Users)
0 Members:

 



- Lo-Fi Version Support form
Copyrights and abuse reports form
Time is now: 8th April 2020 - 17:31:02