Welcome Guest ( Log In | Register )

> И неформату есть предел.

Рэп/хип-хоп/шансон/поп удаляются. Для них есть свои порталы.

> Gentle Giant - Civilian (1980), Progressive Rock/Pop-Rock (D10)
post Jul 29 2018, 19:44:56
Post #1


**********
Group: Металариец
Posts: 1,277
Releases: 189
From: Подмосковье
On Forums: 10 years 6 months
Thanks: 3337 time(s)
Russian Federation


(IMG:http://metalarea.org/images/audiocovers/2018_Jul/acov_tid308761_thumb.jpg)

*Artist: Gentle Giant
*Album: Civilian
*Year: 1980
*Genre: Progressive Rock, Pop-Rock
*Country: United Kingdom (IMG:http://metalarea.org/forum/style_images/flags/United%20Kingdom.png)
*Format: mp3@CBR320kbps
*Size: 81MB

Tracklist:
1. Convenience (Clean And Easy) 3:14
2. All Through The Night 4:20
3. Shadows On The Street 3:18
4. Number One 4:39
5. Underground 3:48
6. I Am A Camera 3:33
7. Inside Out 5:51
8. It's Not Imagination 3:59
9. Heroes No More 4:25
******************************
Total playing time: 37:07

(IMG:http://metalarea.org/images/youtube.png)

Extended info
Line-up / Musicians
-Derek Shulman / lead vocals
-Gary Green / electric guitars
-Kerry Minnear / synths, piano (3) & electric piano, Hammond (2,3,9), clavinet (7), lead vocals (3)
-Ray Shulman / bass, acoustic guitar (5,6), backing vocals
-John Weathers / drums, percussion, backing vocals


Technical info
(IMG:http://metalarea.org/images/spectrogram/2018_Jul/5a347fa3c2e67fc4f9d98169a7769b2f.png)
Input File: 02. All Through The Night.mp3
Channels : 2
Sample Rate : 44100
Precision : 16-bit
Duration : 00:04:20.35 = 11481567 samples = 19526.5 CDDA sectors
File Size : 10.4M
Bit Rate : 320k
Sample Encoding: MPEG audio (layer I, II or III)
Comments :
Title=All Through The Night
Artist=Gentle Giant
Album=Civilian
Tracknumber=2/9
Year=1980
Genre=Progressive Rock



Register


Thanks:
(1) marilin,
Go to the top of the page
  Insert nick Quick quote
+Quote Post
 
Start new topic
Replies (1 - 1)
post Jan 9 2020, 16:56:15
Post #2

Враг Газпрома
**************
Group: Металариец
Posts: 6,134
Releases: 0
On Forums: 10 years 8 months
Thanks: 2321 time(s)
Russian Federation


В плане сравнения этого альбома с другими из дискографии группы - самая слабая работа. Слишком много клавишных и танцевальные ритмы особо не способствуют его положительному усвоению. Песня Number One это прекрасно подчеркивает. Но... в свете того, что делали позже Supertramp или Japan, это очень годный альбом. Для коллекции.
Go to the top of the page
  Insert nick Quick quote
+Quote Post

Reply to this topicStart new topic
1 User(s) are reading this topic (1 Guests and 0 Anonymous Users)
0 Members:

 



- Lo-Fi Version Support form
Copyrights and abuse reports form
Time is now: 16th February 2020 - 20:04:02