Welcome Guest ( Log In | Register )

> Nightly Mass - Во Имя Мести [demo] (2018), Black Metal
post Aug 2 2018, 18:05:10
Post #1

Семь Литров
*******
Group: Металариец
Posts: 781
Releases: 19
From: Saint-Petersburg
On Forums: 10 years 2 weeks
Thanks: 1697 time(s)
Russian Federation


(IMG:http://metalarea.org/images/audiocovers/2018_Aug/acov_tid308919_thumb.jpg)

*Artist: Nightly Mass
*Album: Во Имя Мести [demo]
*Year: 2018
*Genre: Black Metal
*Country: Russian Federation (IMG:http://metalarea.org/forum/style_images/flags/Russian%20Federation.png)
*Format: mp3@CBR320kbps
*Size: 10MB

Tracklist:
01. Во имя мести 04:31
******************************
Total playing time: 4:31

Extended info
In memory of Martin E. Ain (1967 - 2017). Total Hellhammer/Celtic Frost Worship.


Technical info
(IMG:http://metalarea.org/images/spectrogram/2018_Aug/6c3ca3ca67db78c1604b8d0f7ad455d1.png)
Input File: Nightly Mass - Во имя мести.mp3
Channels : 2
Sample Rate : 44100
Precision : 16-bit
Duration : 00:04:31.77 = 11985057 samples = 20382.8 CDDA sectors
File Size : 10.9M
Bit Rate : 320k
Sample Encoding: MPEG audio (layer I, II or III)
Comments :
Title=Во имя мести
Artist=Nightly Mass
Album=Во имя мести
Tracknumber=1
Year=2018
Genre=138



Register


Go to the top of the page
  Insert nick Quick quote
+Quote Post
 
Start new topic
Replies (1 - 1)
post Aug 3 2018, 15:30:51
Post #2

De Mysteriis Dom Sathanas
**************
Group: Металариец
Posts: 3,642
Releases: 63
From: Doom
On Forums: 11 years 2 months
Thanks: 3067 time(s)
Russian Federation


Я и не в курсе был - Martin E. Ain (1967 - 2017) - Celtic Frost
Go to the top of the page
  Insert nick Quick quote
+Quote Post

Reply to this topicStart new topic
2 User(s) are reading this topic (2 Guests and 0 Anonymous Users)
0 Members:

 



- Lo-Fi Version Support form
Copyrights and abuse reports form
Time is now: 22nd September 2019 - 00:27:48