Welcome Guest ( Log In | Register )

> И неформату есть предел.

Рэп/хип-хоп/шансон/поп удаляются. Для них есть свои порталы.

> Peter Andersson - Timewaves (2018), Dark Ambient/Industrial
post Aug 5 2018, 17:34:53
Post #1

Девять Литров
*********
Group: Металариец
Posts: 989
Releases: 370
On Forums: 7 years 9 months
Thanks: 8146 time(s)
North Korea


(IMG:http://metalarea.org/images/audiocovers/2018_Aug/acov_tid309030_thumb.jpg)

*Artist: Peter Andersson
*Album: Timewaves
*Year: 2018
*Genre: Dark Ambient, Industrial
*Country: Sweden (IMG:http://metalarea.org/forum/style_images/flags/Sweden.png)
*Format: mp3@CBR320kbps
*Size: 141MB

Tracklist:
1.The Obsolete Work of Iron 06:36
2.On the Brink of Death, in Mud under Barbed Wires 11:14
3.Cold Attempts of a Blissful Obliteration 13:59
4.At Night I Wish I Fall Asleep 13:59
5.Any Second Industrial Insurgence 13:00
6.Time to Wonder 04:50
******************************
Total playing time: 1:03:38



Extended info
Peter Andersson (Sweden) is most known for the dark ambient project raison d'être and a bunch of other projects like Stravtm Terror, Atomine Elektrine and Bocksholm (a collaboration project with Deutsch Nepal). Sometimes he releases albums under his personal name, mostly music for museum exhibitions and short movies. The majority of the tracks on Timewaves has been used in various exhibitions in some Swedish museums. This time the music is a bit darker, more industrial and experimental than previous exhibition albums from Peter Andersson, but still enigmatic.


Technical info
(IMG:http://metalarea.org/images/spectrogram/2018_Aug/e03a366042f8739e9616135c7790af7c.png)
Input File: 01 - The Obsolete Work of Iron - - Senza Titolo1.mp3
Channels : 2
Sample Rate : 44100
Precision : 16-bit
Duration : 00:01:27.04 = 3838508 samples = 6528.07 CDDA sectors
File Size : 3.48M
Bit Rate : 320k
Sample Encoding: MPEG audio (layer I, II or III)



Register


Go to the top of the page
  Insert nick Quick quote
+Quote Post
 
Start new topic
Replies (1 - 5)
post Aug 10 2018, 08:53:07
Post #2

Satan bless you!
**************
Group: Металариец
Posts: 3,206
Releases: 63
From: Москва
On Forums: 10 years 1 month
Thanks: 2757 time(s)
Russian Federation


Ерунда какая-то..разговоры, смех , похоже на улице или в переходе, каблучки цокают..вот и вся музыка...ну там фон шумовой..блин и это все слушать? (IMG:style_emoticons/default/22.gif)
Go to the top of the page
  Insert nick Quick quote
+Quote Post
post Aug 10 2018, 09:00:19
Post #3

Правь статус, ####!111
**************
Group: Металариец
Posts: 33,611
Releases: 489
On Forums: 9 years 2 months
Thanks: 25610 time(s)
Russian Federation


ЦИТАТА(RUSP73 @ Aug 10 2018, 11:53:07) *
Ерунда какая-то..разговоры, смех , похоже на улице или в переходе, каблучки цокают..вот и вся музыка...ну там фон шумовой..блин и это все слушать? (IMG:style_emoticons/default/22.gif)


Ну это же ты русский рок в переходах описал (IMG:style_emoticons/default/bye.gif)
Go to the top of the page
  Insert nick Quick quote
+Quote Post
post Aug 10 2018, 15:27:27
Post #4

Девять Литров
*********
Group: Металариец
Posts: 989
Releases: 370
On Forums: 7 years 9 months
Thanks: 8146 time(s)
North Korea


QUOTE(RUSP73 @ Aug 10 2018, 09:53:07) *
Ерунда какая-то..разговоры, смех , похоже на улице или в переходе, каблучки цокают..вот и вся музыка...ну там фон шумовой..блин и это все слушать? (IMG:style_emoticons/default/22.gif)


Definitely far from the Raison d?etre soundscape... this is industrial experimental stuff probably done as a soundtrack for some exhibition/movies or something like that... Just to put in the collection of the swedish artist but nothing more. Give it another couple of listening anyway, some good stuff here and there... (IMG:style_emoticons/default/smile3.gif)
Go to the top of the page
  Insert nick Quick quote
+Quote Post
post Aug 10 2018, 15:34:18
Post #5

Ледоруб
**************
Group: Металариец
Posts: 20,305
Releases: 0
From: Санкт-Петербург
On Forums: 8 years 11 months
Thanks: 6603 time(s)
Russian Federation


ЦИТАТА(RUSP73 @ 10th August 2018 - 10:53:07) *
разговоры, смех , похоже на улице или в переходе, каблучки цокают..вот и вся музыка

Надо брать, люблю атмо.
Go to the top of the page
  Insert nick Quick quote
+Quote Post
post Aug 11 2018, 15:06:10
Post #6

Satan bless you!
**************
Group: Металариец
Posts: 3,206
Releases: 63
From: Москва
On Forums: 10 years 1 month
Thanks: 2757 time(s)
Russian Federation


ЦИТАТА(kefka @ Aug 10 2018, 17:27:27) *
Definitely far from the Raison d?etre soundscape... this is industrial experimental stuff probably done as a soundtrack for some exhibition/movies or something like that... Just to put in the collection of the swedish artist but nothing more. Give it another couple of listening anyway, some good stuff here and there... (IMG:style_emoticons/default/smile3.gif)

Не - не мое, лучше MZ.412 крайний переслушаю и хотя это разная музыка - тут совсем скука
Go to the top of the page
  Insert nick Quick quote
+Quote Post

Reply to this topicStart new topic
2 User(s) are reading this topic (2 Guests and 0 Anonymous Users)
0 Members:

 



- Lo-Fi Version Support form
Copyrights and abuse reports form
Time is now: 21st August 2018 - 08:52:52