Welcome Guest ( Log In | Register )

> Throneum - The Tight Deathrope Act Over Rubicon (2018), Black/Death Metal
post Aug 6 2018, 01:02:22
Post #1

Правь статус, ####!111
**************
Group: Металариец
Posts: 3,345
Releases: 676
From: Brazil
On Forums: 6 years 9 months
Thanks: 26608 time(s)
Brazil


(IMG:https://metalarea.org/images/audiocovers/2018_Aug/acov_tid309036_thumb.jpg)

*Artist: Throneum
*Album: The Tight Deathrope Act Over Rubicon
*Year: 2018
*Genre: Black/Death Metal
*Country: Poland (IMG:https://metalarea.org/forum/style_images/flags/Poland.png)
*Format: mp3@CBR320kbps
*Size: 136MB

Tracklist:
1. Crossing the Dead River 05:22
2. The Tight Deathrope Act over Rubicon 08:37
3. Enochian Lexicon 05:55
4. Enochian Lexicon II 05:22
5. Enochian Lexicon III 04:35
6. Enochian Lexicon IV 06:31
7. The Biblical Serpent - The Master of Misfortune 05:21
8. To-Mega-Therion 06:26
9. Primal Words. Orphic 11:02
******************************
Total playing time: 59:11



Extended info
Hells Headbangers Records


Technical info
(IMG:https://metalarea.org/images/spectrogram/2018_Aug/c33d68448244883e75a6f87fe9b304c7.png)
Input File: 04 Enochian Lexicon II.mp3
Channels : 2
Sample Rate : 44100
Precision : 16-bit
Duration : 00:05:24.09 = 14292501 samples = 24307 CDDA sectors
File Size : 13.0M
Bit Rate : 320k
Sample Encoding: MPEG audio (layer I, II or III)
Comments :
Title=Enochian Lexicon II
Artist=Throneum
Album=The Tight Deathrope Act over Rubicon
Tracknumber=4
Year=2018



Register


Go to the top of the page
  Insert nick Quick quote
+Quote Post
 
Start new topic
Replies (1 - 2)
post Aug 10 2018, 08:54:34
Post #2

De Mysteriis Dom Sathanas
**************
Group: Металариец
Posts: 3,310
Releases: 63
From: Москва
On Forums: 10 years 4 months
Thanks: 2845 time(s)
Russian Federation


Столько лет нарезают, а все никак не научатся нормальную музыку создавать, вокалист особенно противный(
Go to the top of the page
  Insert nick Quick quote
+Quote Post
post Aug 10 2018, 09:22:57
Post #3

Самый Тихий Час
**************
Group: Металариец
Posts: 5,608
Releases: 0
On Forums: 9 years 2 days
Thanks: 2446 time(s)
Unknown


Сколько нарезают а в всё гнут непричёсанный озверелый Ад, вокалист особо мерзок (IMG:style_emoticons/default/25.gif)
Go to the top of the page
  Insert nick Quick quote
+Quote Post

Reply to this topicStart new topic
2 User(s) are reading this topic (2 Guests and 0 Anonymous Users)
0 Members:

 



- Lo-Fi Version Support form
Copyrights and abuse reports form
Time is now: 14th November 2018 - 14:16:40