Welcome Guest ( Log In | Register )

> Tümëur - Gangrène (2013), Black Metal
post Aug 6 2018, 04:11:15
Post #1

Правь статус, ####!111
**************
Group: Металариец
Posts: 3,345
Releases: 676
From: Brazil
On Forums: 6 years 9 months
Thanks: 26608 time(s)
Brazil


(IMG:https://metalarea.org/images/audiocovers/2018_Aug/acov_tid309038_thumb.jpg)

*Artist: Tümëur
*Album: Gangrène
*Year: 2013
*Genre: Black Metal
*Country: France (IMG:https://metalarea.org/forum/style_images/flags/France.png)
*Format: mp3@CBR320kbps
*Size: 97MB

Tracklist:
1. Ma dernière balle 08:37
2. Je hais le peuple pour notre perpétuelle bêtise 08:37
3. Mourir de vivre 13:36
4. Le présent reste le passé 11:35
******************************
Total playing time: 42:25

(IMG:https://metalarea.org/images/youtube.png)

Extended info
Éclat Cadavéreux Everything
See also: ex-Humus

Les Créations Clandestines


Technical info
(IMG:https://metalarea.org/images/spectrogram/2018_Aug/db540a07f78837f3568249f6e65c65e2.png)
Input File: 02 Je hais le peuple pour notre perpétuelle bêtise.mp3
Channels : 2
Sample Rate : 44100
Precision : 16-bit
Duration : 00:08:33.10 = 22627666 samples = 38482.4 CDDA sectors
File Size : 20.5M
Bit Rate : 320k
Sample Encoding: MPEG audio (layer I, II or III)
Comments :
Title=Je hais le peuple pour notre perpétuelle bêtise
Artist=Tümëur
Album=Gangrène
Tracknumber=2
Year=2018



Register


Go to the top of the page
  Insert nick Quick quote
+Quote Post
 
Start new topic
Replies (1 - 1)
post Aug 10 2018, 09:01:20
Post #2

De Mysteriis Dom Sathanas
**************
Group: Металариец
Posts: 3,310
Releases: 63
From: Москва
On Forums: 10 years 4 months
Thanks: 2845 time(s)
Russian Federation


Хороший проект! Дядька также нарезает в Humus
Go to the top of the page
  Insert nick Quick quote
+Quote Post

Reply to this topicStart new topic
2 User(s) are reading this topic (2 Guests and 0 Anonymous Users)
0 Members:

 



- Lo-Fi Version Support form
Copyrights and abuse reports form
Time is now: 14th November 2018 - 14:28:02