Welcome Guest ( Log In | Register )

> Horns - Czerń (2018), Black Metal
post Aug 7 2018, 10:26:45
Post #1

Правь статус, ####!111
**************
Group: Металариец
Posts: 14,913
Releases: 10236
From: Г.Харьков
On Forums: 6 years 6 months
Thanks: 168753 time(s)
Unknown


(IMG:http://metalarea.org/images/audiocovers/2018_Aug/acov_tid309101_thumb.jpg)

*Artist: Horns
*Album: Czerń
*Year: 2018
*Genre: Black Metal
*Country: Poland (IMG:http://metalarea.org/forum/style_images/flags/Poland.png)
*Format: mp3@CBR320kbps
*Size: 104MB

Tracklist:
1. Intro 02:20
2. Rządy Krwawego Opętania 05:54
3. Mściwy Gniew Martwoty 06:35
4. Krocząc Wilka Droga, gdy Pełnia Wzywa 06:07
5. W Otchłani Diabelskiego Robowca 08:13
6. W Ciemność Stracony 06:49
7. Czerń 06:45
8. Outro 02:48
******************************
Total playing time: 45:31




Extended info
Hesgal Bass, Vocals
See also: Nocturnal Werewolf, Nyja
M. Drums
See also: Lord Wind, Mystherium, Goatlord, Industrium, ex-Ebola, ex-Graveland, ex-Moontower, ex-Warfist, ex-O.M.E.N.
N. Guitars
See also: Arkona, Taran, Zło, ex-Vomigod
Z. Guitars
See also: Mystherium, ex-Graveland


Technical info
(IMG:http://metalarea.org/images/spectrogram/2018_Aug/9358cc6d5beb56f77aa8dd5cacd54ba9.png)
Input File: 02. Rządy krwawego opętania.mp3
Channels : 2
Sample Rate : 44100
Precision : 16-bit
Duration : 00:00:00.35 = 15523 samples = 26.3997 CDDA sectors
File Size : 14.2M
Bit Rate : 323M
Sample Encoding: MPEG audio (layer I, II or III)
Comments :
Title=Rządy krwawego opętania
Artist=Horns
Album=Czerń
Tracknumber=2/8
Year=2018-18-20
Discnumber=1/1



Register


Go to the top of the page
  Insert nick Quick quote
+Quote Post
 
Start new topic
Replies (1 - 3)
post Aug 7 2018, 12:47:12
Post #2

Правь статус, ####!111
**************
Group: Металариец
Posts: 14,913
Releases: 10236
From: Г.Харьков
On Forums: 6 years 6 months
Thanks: 168753 time(s)
Unknown


Cloud Mail 320
Register


Go to the top of the page
  Insert nick Quick quote
+Quote Post
post Aug 10 2018, 08:55:40
Post #3

De Mysteriis Dom Sathanas
**************
Group: Металариец
Posts: 3,310
Releases: 63
From: Москва
On Forums: 10 years 4 months
Thanks: 2845 time(s)
Russian Federation


Очень недурно! (IMG:style_emoticons/default/pray.gif)
Go to the top of the page
  Insert nick Quick quote
+Quote Post
post Aug 10 2018, 18:28:31
Post #4

Мегаманьяк
***********
Group: Металариец
Posts: 1,588
Releases: 0
From: Dnipro
On Forums: 10 years 4 months
Thanks: 419 time(s)
Ukraine


Тоже поперло, не хилый альбомчик.
Go to the top of the page
  Insert nick Quick quote
+Quote Post

Reply to this topicStart new topic
2 User(s) are reading this topic (2 Guests and 0 Anonymous Users)
0 Members:

 



- Lo-Fi Version Support form
Copyrights and abuse reports form
Time is now: 14th November 2018 - 14:13:06