Welcome Guest ( Log In | Register )

> Правила / Rules

Тут только для чтения лежат низкобитрейтные (<192kbps) релизы, для которых есть аналоги в высокобитрейтных форумах.

Here goes (and stand in read only mode) low bitrate releases (<192kbps) which were already replaced by high bitrate releases in corresponding forums.

Причина закрытия (DarkHorde 10-08-2018): Occelensbrigg - The Quest For The Star Mountain (2018)
 
Closed TopicStart new topic
> Occelensbrigg - The Quest For The Star Mountain (2018), Black Metal/Ambient
post Aug 8 2018, 14:17:01
Post #1

Маньяк
**********
Group: Металариец
Posts: 1,346
Releases: 1137
From: Одесса
On Forums: 10 years 2 months
Thanks: 8818 time(s)
Ukraine


(IMG:http://metalarea.org/images/audiocovers/2018_Aug/acov_tid309159_thumb.png)

*Artist: Occelensbrigg
*Album: The Quest For The Star Mountain
*Year: 2018
*Genre: Black Metal/Ambient
*Country: Portugal (IMG:http://metalarea.org/forum/style_images/flags/Portugal.png)
*Format: mp3@CBR128kbps (IMG:http://metalarea.org/images/bit_low.gif)
*Size: 41MB

Tracklist:
1. The Revenge of the Imposing Oak Forest
2. Ancient Tree Crowned with the Stars
3. The Falling Guardians of Death and Life
4. Night of the Black Star
******************************
Total playing time: 42:18

Extended info
Line - up:

Occelensbrigg - Unknown (ex-Conjuro)

(IMG:https://f4.bcbits.com/img/0013950524_10.jpg)


Technical info
(IMG:http://metalarea.org/images/spectrogram/2018_Aug/79734ff0be7ef1a88fbac7aacb78bb48.png)
Input File: 4.Night of the Black Star.mp3
Channels : 2
Sample Rate : 44100
Precision : 16-bit
Duration : 00:12:59.26 = 34365410 samples = 58444.6 CDDA sectors
File Size : 12.5M
Bit Rate : 128k
Sample Encoding: MPEG audio (layer I, II or III)
Comments :
Title=Night of the Black Star
Artist=Occelensbrigg
Album=The Quest For The Star Mountain
Tracknumber=4
Year=2018
Genre=Black Metal / Ambient



Register


Go to the top of the page
  Insert nick Quick quote
+Quote Post

Причина закрытия (DarkHorde 10-08-2018): Occelensbrigg - The Quest For The Star Mountain (2018)
Closed TopicStart new topic
2 User(s) are reading this topic (2 Guests and 0 Anonymous Users)
0 Members:

 



- Lo-Fi Version Support form
Copyrights and abuse reports form
Time is now: 20th August 2018 - 02:02:05