Welcome Guest ( Log In | Register )

> Releases Upload / Добавление релизов

Добавить релиз тут / Click here to add release
Рекомендованные обменники / Recommended file shares

> Ill Omen - The Grande Usurper [ep] (2018), Black Metal (D)
post Aug 9 2018, 09:07:42
Post #1

Аннигилятор пивА
Group Icon
Group: V.I.P
Posts: 48,114
Releases: 14596
From: Koenigsberg - TILZIT
On Forums: 12 years 2 months
Thanks: 321382 time(s)
Russian Federation


(IMG:https://metalarea.org/images/audiocovers/2018_Aug/acov_tid309171_thumb.jpg)

*Artist: Ill Omen
*Album: The Grande Usurper [ep]
*Year: 2018
*Genre: Black Metal
*Country: Australia (IMG:https://metalarea.org/forum/style_images/flags/Australia.png)
*Format: mp3@CBR320kbps
*Size: 53MB

Tracklist:
1. The Ruinous Drear 05:04
2. Sentenced Suffering 06:37
3. An Eld Living Darkness 05:27
4. A Thousand Yawning Graves 06:30
******************************
Total playing time: 23:38



Extended info


Technical info
(IMG:https://metalarea.org/images/spectrogram/2018_Aug/b7d37c300aa2760816bc8f04b81ea300.png)
Input File: 02. Sentenced Suffering.MP3
Channels : 2
Sample Rate : 44100
Precision : 16-bit
Duration : 00:06:37.42 = 17526002 samples = 29806.1 CDDA sectors
File Size : 15.9M
Bit Rate : 320k
Sample Encoding: MPEG audio (layer I, II or III)
Comments :
Title=Sentenced Suffering
Artist=Ill Omen
Album=The Grande Usurper
Tracknumber=2
Year=2018



Register


Go to the top of the page
  Insert nick Quick quote
+Quote Post
 
Start new topic
Replies (1 - 6)
post Aug 9 2018, 12:04:28
Post #2

Аннигилятор пивА
Group Icon
Group: V.I.P
Posts: 48,114
Releases: 14596
From: Koenigsberg - TILZIT
On Forums: 12 years 2 months
Thanks: 321382 time(s)
Russian Federation


MIRROR
Register


Go to the top of the page
  Insert nick Quick quote
+Quote Post
post Aug 9 2018, 12:09:45
Post #3

Group: Подсевший
Posts: 14
Releases: 0
On Forums: 1 year 10 months
Thanks: 2 time(s)
Chile


in Mega, thanks men!
Go to the top of the page
  Insert nick Quick quote
+Quote Post
post Aug 9 2018, 18:36:56
Post #4

Detective Godzilla
**************
Group: Металариец
Posts: 2,490
Releases: 173
On Forums: 7 years 6 months
Thanks: 5035 time(s)
Russian Federation


А я думал, что никто не подберет (IMG:style_emoticons/default/1488.gif)

Хороший релиз, но лень было самому запосить
Go to the top of the page
  Insert nick Quick quote
+Quote Post
post Aug 9 2018, 18:37:53
Post #5

Правь статус, ####!111
**************
Group: Металариец
Posts: 33,611
Releases: 489
On Forums: 9 years 2 months
Thanks: 25610 time(s)
Russian Federation


ЦИТАТА(Daale @ Aug 9 2018, 21:36:56) *
но лень было самому запосить


Дядь, когда ждать Блэк Фунерал и Дэсхаммер?
Go to the top of the page
  Insert nick Quick quote
+Quote Post
post Aug 9 2018, 18:40:42
Post #6

Detective Godzilla
**************
Group: Металариец
Posts: 2,490
Releases: 173
On Forums: 7 years 6 months
Thanks: 5035 time(s)
Russian Federation


vosmidesijatye, Все ближе к релизу. Не хочу такое сливать ну ОЧЕНЬ рано. Я тут опять чуть не зарекся больше не заливать, но передумал просто потому, что многим хочется увидеть пораньше что-то.

Может в ближайшую неделю поделюсь чем. Посмотрим.


Go to the top of the page
  Insert nick Quick quote
+Quote Post
post Aug 9 2018, 18:49:46
Post #7

Absorbence
***********
Group: Металариец
Posts: 1,595
Releases: 215
From: Vastland Abyss of Cthulhu
On Forums: 11 years 9 months
Thanks: 3558 time(s)
Canada


Go to the top of the page
  Insert nick Quick quote
+Quote Post

Reply to this topicStart new topic
1 User(s) are reading this topic (1 Guests and 0 Anonymous Users)
0 Members:

 



- Lo-Fi Version Support form
Copyrights and abuse reports form
Time is now: 21st August 2018 - 08:53:14