Welcome Guest ( Log In | Register )

> Kantozis - Gleipnir [ep] (2018), Black Metal
post Aug 9 2018, 09:25:00
Post #1

Аннигилятор пивА
Group Icon
Group: V.I.P
Posts: 50,803
Releases: 15843
From: Koenigsberg - TILZIT
On Forums: 12 years 6 months
Thanks: 345260 time(s)
Russian Federation


(IMG:https://metalarea.org/images/audiocovers/2018_Aug/acov_tid309172_thumb.jpg)

*Artist: Kantozis
*Album: Gleipnir [ep]
*Year: 2018
*Genre: Black Metal
*Country: United States (IMG:https://metalarea.org/forum/style_images/flags/United%20States.png)
*Format: mp3@CBR320kbps
*Size: 57MB

Tracklist:
1. Chant For Armageddon 03:21
2. Sins of Our Creation 03:52
3. Misanthropy 04:03
4. Without Eyes to See, What Good is the Light? 04:18
5. Epitome 02:43
6. Zombies 05:40
******************************
Total playing time: 23:57

Extended info
Vocals/Lyrics: James Dunbar
Guitars/Bass/Songwriting: Eddie Combs
Drums: Anthony Minolfo


Technical info
(IMG:https://metalarea.org/images/spectrogram/2018_Aug/34fc16fa05ce932708504cd2e6e01351.png)
Input File: Kantozis - GLEIPNIR EP - 02 Sins of Our Creation.mp3
Channels : 2
Sample Rate : 44100
Precision : 16-bit
Duration : 00:03:52.61 = 10257969 samples = 17445.5 CDDA sectors
File Size : 9.39M
Bit Rate : 323k
Sample Encoding: MPEG audio (layer I, II or III)
Comments :
Title=Sins of Our Creation
Artist=Kantozis
Album=GLEIPNIR EP
Tracknumber=2
Year=2018



Register


Go to the top of the page
  Insert nick Quick quote
+Quote Post
 
Start new topic
Replies (1 - 1)
post Aug 11 2018, 02:37:33
Post #2

Правь статус, ####!111
**************
Group: Металариец
Posts: 2,421
Releases: 11
From: Canada
On Forums: 11 years 6 months
Thanks: 1543 time(s)
Canada




Thanks:
Go to the top of the page
  Insert nick Quick quote
+Quote Post

Reply to this topicStart new topic
1 User(s) are reading this topic (1 Guests and 0 Anonymous Users)
0 Members:

 



- Lo-Fi Version Support form
Copyrights and abuse reports form
Time is now: 13th December 2018 - 13:47:20