Welcome Guest ( Log In | Register )

> Releases Upload / Добавление релизов

Добавить релиз тут / Click here to add release
Рекомендованные обменники / Recommended file shares

> Kantozis - What The Fuck God? [ep] (2018), Black Metal
post Aug 9 2018, 09:32:35
Post #1

Аннигилятор пивА
Group Icon
Group: V.I.P
Posts: 48,114
Releases: 14596
From: Koenigsberg - TILZIT
On Forums: 12 years 2 months
Thanks: 321383 time(s)
Russian Federation


(IMG:https://metalarea.org/images/audiocovers/2018_Aug/acov_tid309173_thumb.jpg)

*Artist: Kantozis
*Album: What The Fuck God? [ep]
*Year: 2018
*Genre: Black Metal
*Country: United States (IMG:https://metalarea.org/forum/style_images/flags/United%20States.png)
*Format: mp3@CBR320kbps
*Size: 42MB

Tracklist:
1. Trapped Inside My Mind's Confines/I Am Blind Although I see 05:05
2. This is Hell on Earth/This is Life 07:10
3. A Funeral For My Faith in the lord 05:39
******************************
Total playing time: 17:54



Extended info
James Dunbar: vocals
Ed Combs: guitar/bass/drums


Technical info
(IMG:https://metalarea.org/images/spectrogram/2018_Aug/ccb2dbff27d503d63c459872dafd7eab.png)
Input File: Kantozis - WHAT THE FUCK GOD- - 01 Trapped Inside My Mind\'s Confines-I Am Blind Although I see.mp3
Channels : 2
Sample Rate : 44100
Precision : 16-bit
Duration : 00:05:05.91 = 13490631 samples = 22943.3 CDDA sectors
File Size : 12.4M
Bit Rate : 325k
Sample Encoding: MPEG audio (layer I, II or III)
Comments :
Title=Trapped Inside My Mind's Confines/I Am Blind Although I see
Artist=Kantozis
Album=WHAT THE FUCK GOD?
Tracknumber=1
Year=2018



Register


Go to the top of the page
  Insert nick Quick quote
+Quote Post
 
Start new topic
Replies (1 - 1)
post Aug 10 2018, 08:45:18
Post #2

Satan bless you!
**************
Group: Металариец
Posts: 3,206
Releases: 63
From: Москва
On Forums: 10 years 1 month
Thanks: 2757 time(s)
Russian Federation


Черти что, а не облога (IMG:style_emoticons/default/22.gif)


Thanks:
(1) Krosis,
Go to the top of the page
  Insert nick Quick quote
+Quote Post

Reply to this topicStart new topic
2 User(s) are reading this topic (2 Guests and 0 Anonymous Users)
0 Members:

 



- Lo-Fi Version Support form
Copyrights and abuse reports form
Time is now: 21st August 2018 - 08:54:17