Welcome Guest ( Log In | Register )

> Releases Upload / Добавление релизов

Добавить релиз тут / Click here to add release
Рекомендованные обменники / Recommended file shares

> Dropped Seed - IX (2018), Progressive Metal
post Aug 9 2018, 10:03:09
Post #1

Аннигилятор пивА
Group Icon
Group: V.I.P
Posts: 48,114
Releases: 14596
From: Koenigsberg - TILZIT
On Forums: 12 years 2 months
Thanks: 321382 time(s)
Russian Federation


(IMG:https://metalarea.org/images/audiocovers/2018_Aug/acov_tid309174_thumb.jpg)

*Artist: Dropped Seed
*Album: IX
*Year: 2018
*Genre: Progressive Metal
*Country: Uruguay (IMG:https://metalarea.org/forum/style_images/flags/Uruguay.png)
*Format: mp3@CBR320kbps
*Size: 138MB

Tracklist:
1. The Long Empty Road
2. A Sense Of Matter
3. Abandon Hope
4. The Giant
5. To The Bitter Strange
6. Feel Black
7. Black Wings
8. Fading
9. Void
******************************
Total playing time: 59:05

Extended info
Voz: Cristián “Cabra” Fabre
Guitarra: Francisco Savoy
Bajo y guitarras acústicas: Eduardo “Dudi” Amed
Batería y secuencias: Mateo Marcó




Technical info
(IMG:https://metalarea.org/images/spectrogram/2018_Aug/3fc35d869c7358e72839e9647aaedd91.png)
Input File: 02 A sense of matter.mp3
Channels : 2
Sample Rate : 44100
Precision : 16-bit
Duration : 00:03:54.86 = 10357194 samples = 17614.3 CDDA sectors
File Size : 9.43M
Bit Rate : 321k
Sample Encoding: MPEG audio (layer I, II or III)
Comments :
Title=A sense of matter
Artist=Dropped Seed
Album=IX
Tracknumber=02/09
Year=2018
Genre=Progressive Metal
Discnumber=1/1



Register


Thanks:
Go to the top of the page
  Insert nick Quick quote
+Quote Post
 
Start new topic
Replies (1 - 1)
post Aug 9 2018, 12:08:47
Post #2

Аннигилятор пивА
Group Icon
Group: V.I.P
Posts: 48,114
Releases: 14596
From: Koenigsberg - TILZIT
On Forums: 12 years 2 months
Thanks: 321382 time(s)
Russian Federation


MIRROR
Register


Thanks:
Go to the top of the page
  Insert nick Quick quote
+Quote Post

Reply to this topicStart new topic
1 User(s) are reading this topic (1 Guests and 0 Anonymous Users)
0 Members:

 



- Lo-Fi Version Support form
Copyrights and abuse reports form
Time is now: 21st August 2018 - 08:53:35