Welcome Guest ( Log In | Register )

> Bestializer - Bestial Cosmicraid Of The Demonic Chaospawn (2018), Old School Thrash/Death Metal
post Aug 9 2018, 10:25:38
Post #1

Правь статус, ####!111
**************
Group: Металариец
Posts: 14,606
Releases: 10081
From: Г.Харьков
On Forums: 6 years 5 months
Thanks: 166107 time(s)
Unknown


(IMG:http://metalarea.org/images/audiocovers/2018_Aug/acov_tid309175_thumb.jpg)

*Artist: Bestializer
*Album: Bestial Cosmicraid Of The Demonic Chaospawn
*Year: 2018
*Genre: Old School Thrash/Death Metal
*Country: Italy (IMG:http://metalarea.org/forum/style_images/flags/Italy.png)
*Format: mp3@CBR320kbps
*Size: 84MB

Tracklist:
1. The Bestial Birth (Intro) 04:36
2. Primordial Abyss 04:30
3. You Are Nothing 02:31
4. Plainfield's Butcher 02:55
5. Alcool (Dorsal Atlantica cover) 05:02
6. Acid Death 02:32
7. Horror Vacui 03:40
8. Alcoholocaust (In Mondolpho) 03:30
9. No Escape 03:36
10. Witchfuck 04:08
******************************
Total playing time: 37:00





Extended info
Fra Bass, Vocals (2010-present)
See also: Maligno, Unleashedogs, ex-Hargh, ex-Semtex
Manu Drums (2010-present)
Johnny Guitars, Screams (2010-present)
See also: Unleashedogs, Vomitomb, ex-Semtex


Technical info
(IMG:http://metalarea.org/images/spectrogram/2018_Aug/a5cf317bc6ce9ffea69d1190046cb7d4.png)
Input File: 02 - Primordial Abyss.mp3
Channels : 2
Sample Rate : 44100
Precision : 16-bit
Duration : 00:04:30.57 = 11932225 samples = 20292.9 CDDA sectors
File Size : 10.8M
Bit Rate : 320k
Sample Encoding: MPEG audio (layer I, II or III)
Comments :
Title=Primordial Abyss
Artist=Bestializer
Album=Bestial Cosmicraid Of The Demonic Chaospawn
Tracknumber=2
Year=2018
Genre=Thrash Metal



Register


Go to the top of the page
  Insert nick Quick quote
+Quote Post
 
Start new topic
Replies (1 - 1)
post Aug 9 2018, 13:15:43
Post #2

Правь статус, ####!111
**************
Group: Металариец
Posts: 14,606
Releases: 10081
From: Г.Харьков
On Forums: 6 years 5 months
Thanks: 166107 time(s)
Unknown


Cloud Mail 320
Register


Thanks:
Go to the top of the page
  Insert nick Quick quote
+Quote Post

Reply to this topicStart new topic
1 User(s) are reading this topic (1 Guests and 0 Anonymous Users)
0 Members:

 



- Lo-Fi Version Support form
Copyrights and abuse reports form
Time is now: 20th October 2018 - 23:06:26