Welcome Guest ( Log In | Register )

 
Reply to this topicStart new topic
> Sentencia - Tribulacion (2018), Groove/Thrash Metal (D11)
post Aug 9 2018, 10:57:50
Post #1

Аннигилятор пивА
Group Icon
Group: V.I.P
Posts: 49,521
Releases: 15311
From: Koenigsberg - TILZIT
On Forums: 12 years 4 months
Thanks: 333682 time(s)
Russian Federation


(IMG:https://metalarea.org/images/audiocovers/2018_Aug/acov_tid309176_thumb.jpg)

*Artist: Sentencia
*Album: Tribulacion
*Year: 2018
*Genre: Groove/Thrash Metal
*Country: Nicaragua (IMG:https://metalarea.org/forum/style_images/flags/Nicaragua.png)
*Format: mp3@CBR320kbps
*Size: 111MB

Tracklist:
01. Intro 02:47
02. Maeo 2 04 4:31
03. Traicion 03:04
04. Devastacion 04:03
05. Resurgir 03:59
06. Inmerso 03:40
07. No Sere Tu Sombra 4:02
08. Esclavitud Mental 03:25
09. Sentencia 04:43
10. Instinto Suicida 04:17
11. Raices Muertas 04:57
12. Psicodisfuncional 05:08
******************************
Total playing time: 48:36



Technical info
(IMG:https://metalarea.org/images/spectrogram/2018_Aug/0e8adcb18865b49a431fa7716b216b32.png)
Input File: 02 Maeo 24.mp3
Channels : 2
Sample Rate : 44100
Precision : 16-bit
Duration : 00:04:31.33 = 11965433 samples = 20349.4 CDDA sectors
File Size : 10.9M
Bit Rate : 320k
Sample Encoding: MPEG audio (layer I, II or III)
Comments :
Title=Maeo 24
Artist=Sentencia
Album=Tribulacion
Tracknumber=2/12
Year=2018
Genre=Thrash Metal
Discnumber=1/1



Register


Go to the top of the page
  Insert nick Quick quote
+Quote Post

Reply to this topicStart new topic
1 User(s) are reading this topic (1 Guests and 0 Anonymous Users)
0 Members:

 



- Lo-Fi Version Support form
Copyrights and abuse reports form
Time is now: 20th October 2018 - 22:14:11