Welcome Guest ( Log In | Register )

> Sinsaenum - Repulsion For Humanity (2018), Black/Death Metal (D4)
post Aug 9 2018, 11:18:14
Post #1

Аннигилятор пивА
Group Icon
Group: V.I.P
Posts: 49,521
Releases: 15311
From: Koenigsberg - TILZIT
On Forums: 12 years 4 months
Thanks: 333684 time(s)
Russian Federation


(IMG:https://metalarea.org/images/audiocovers/2018_Aug/acov_tid309178_thumb.jpg)

*Artist: Sinsaenum
*Album: Repulsion For Humanity
*Year: 2018
*Genre: Black/Death Metal
*Country: France (IMG:https://metalarea.org/forum/style_images/flags/France.png)
*Format: mp3@CBR320kbps
*Size: 146MB

Tracklist:
01. Repulsion for Humanity 05:02
02. Final Resolve 04:52
03. Sworn to Hell 04:40
04. I Stand Alone 05:42
05. Rise of the Light Bearer 03:51
06. Manifestation of Ignorance 06:43
07. Sacred Martyr 04:27
08. My Swan Song 08:16
09. Nuit Noire 04:40
10. Insects 04:50
11. Forsaken 09:25
******************************
Total playing time: 1:02:28



Extended info
Country of origin: International (France / USA / Hungary)

Heimoth - Bass (Decrepit Spectre, Seth, ex-Void, ex-Code, ex-Reverence, ex-Morning Rise)
Joey Jordison - Drums (ex-Modifidious, Vimic, ex-Ministry, ex-Metallica (live), ex-Satyricon, ex-Anal Blast, ex-Hellpig, ex-Murderdolls, ex-Roadrunner United, ex-Scar the Martyr, ex-Slipknot, ex-The Have Nots, ex-Korn (live), ex-Rob Zombie)
Stéphane Buriez - Guitars (Loudblast, Le Bal Des Enragés, ex-Clearcut)
Frédéric Leclercq - Guitars, Bass, Synth (DragonForce, Menace, ex-Memoria, ex-Maladaptive, Egoine, Sudel's Project, ex-Heavenly, ex-CinC, ex-Machine Head, ex-Sabaton, ex-Denied, ex-Hors Normes)
Sean Zatorsky - Vocals (Dååth, ex-Chimaira)
Attila Csihar - Vocals (Gravetemple, Mayhem, Nader Sadek, Sunn O))), Tormentor, ex-Burial Chamber Trio, ex-Pentemple, Void ov Voices, ex-Aborym, ex-Keep of Kalessin, ex-Korog, ex-Plasma Pool)
Guest:
Lauren Hart - Vocals (Once Human, Kamelot)


Technical info
(IMG:https://metalarea.org/images/spectrogram/2018_Aug/ecea42f5d0a327f67b88d85fbe60eda6.png)
Input File: 01 Repulsion for Humanity.mp3
Channels : 2
Sample Rate : 44100
Precision : 16-bit
Duration : 00:05:02.34 = 13332974 samples = 22675.1 CDDA sectors
File Size : 12.4M
Bit Rate : 327k
Sample Encoding: MPEG audio (layer I, II or III)
Comments :
Title=Repulsion for Humanity
Artist=Sinsaenum
Album=Repulsion for Humanity
Tracknumber=1/11
Year=2018
Genre=Pop
Discnumber=1/1



Register


Go to the top of the page
  Insert nick Quick quote
+Quote Post
 
Start new topic
Replies (1 - 7)
post Aug 9 2018, 12:48:52
Post #2

Аннигилятор пивА
Group Icon
Group: V.I.P
Posts: 49,521
Releases: 15311
From: Koenigsberg - TILZIT
On Forums: 12 years 4 months
Thanks: 333684 time(s)
Russian Federation


MIRROR
Register

Register



Go to the top of the page
  Insert nick Quick quote
+Quote Post
post Aug 9 2018, 15:42:46
Post #3

Маньяк
**********
Group: Металариец
Posts: 1,259
Releases: 0
On Forums: 10 years 8 months
Thanks: 494 time(s)
Russian Federation


Неплохо канеш, но чото затянуто. Внимательней слушать надобы.
Go to the top of the page
  Insert nick Quick quote
+Quote Post
post Aug 9 2018, 21:26:49
Post #4

Crush The Enemies
**************
Group: Металариец
Posts: 4,135
Releases: 0
From: Moscow
On Forums: 9 years 1 month
Thanks: 2202 time(s)
Russian Federation


ЦИТАТА(aesteticvice @ 9th August 2018 - 14:18:14) *
Стиль: Black/Death Metal

Судя по клипу блЭковых инфлУэнций,да ещё и на первом месте в обозначенном тобой стиле вообще нЭт - можно охарактеризовать,как Blackened Death,но портит всё восприятие Даафовский вокалист - мощи и утробности в звучании ему не хватает!

P.S А так,в принципе,неплохо (IMG:style_emoticons/default/9.gif)


Go to the top of the page
  Insert nick Quick quote
+Quote Post
post Aug 10 2018, 08:41:16
Post #5

Satan bless you!
**************
Group: Металариец
Posts: 3,275
Releases: 63
From: Москва
On Forums: 10 years 3 months
Thanks: 2828 time(s)
Russian Federation


Если в клипе лучшая песня альбома, то я пас, да и вообще ерунда какая-то, заодно послушал предыдущие - дэлит короче, несмотря на присутствие многоуважаемого Аттилыча
пысы А почему Франция? Там не только лягушатники вроде бы)
Go to the top of the page
  Insert nick Quick quote
+Quote Post
post Aug 11 2018, 21:17:21
Post #6

Аннигилятор пивА
Group Icon
Group: V.I.P
Posts: 49,521
Releases: 15311
From: Koenigsberg - TILZIT
On Forums: 12 years 4 months
Thanks: 333684 time(s)
Russian Federation


FLAC (image.cue.log.scans)/500 Мb
Register



Thanks:
Go to the top of the page
  Insert nick Quick quote
+Quote Post
post Aug 23 2018, 12:08:49
Post #7

Три Литра
***
Group: Завсегдатай
Posts: 290
Releases: 5
From: Самара
On Forums: 10 years 1 month
Thanks: 274 time(s)
Russian Federation


ЦИТАТА
Joey Jordison ex-Slipknot


когда это он успел оттуда уйти?
Go to the top of the page
  Insert nick Quick quote
+Quote Post
post Aug 26 2018, 16:01:58
Post #8

antithesis
**************
Group: Металариец
Posts: 2,350
Releases: 29
From: VRN
On Forums: 8 years 4 months
Thanks: 1239 time(s)
Russian Federation


ЦИТАТА(Dantalian @ Aug 23 2018, 16:08:49) *
когда это он успел оттуда уйти?

около 5 лет назад.

и по теме. сабж как-то уж совсем не впечатлил. последний трек норм, остальное фтопку. и фирменного шаманизма Атиллы не слышно и риффов толковых немного. и как уже было отмечено второму (или первому?) вокалу глубины недостаёт.
Go to the top of the page
  Insert nick Quick quote
+Quote Post

Reply to this topicStart new topic
1 User(s) are reading this topic (1 Guests and 0 Anonymous Users)
0 Members:

 



- Lo-Fi Version Support form
Copyrights and abuse reports form
Time is now: 20th October 2018 - 22:26:06