Welcome Guest ( Log In | Register )

> Mad Max - 35 (2018), Heavy Metal/Hard Rock (D13)
post Aug 9 2018, 11:36:44
Post #1

Аннигилятор пивА
Group Icon
Group: V.I.P
Posts: 49,521
Releases: 15311
From: Koenigsberg - TILZIT
On Forums: 12 years 4 months
Thanks: 333686 time(s)
Russian Federation


(IMG:https://metalarea.org/images/audiocovers/2018_Aug/acov_tid309181_thumb.jpg)

*Artist: Mad Max
*Album: 35
*Year: 2018
*Genre: Heavy Metal/Hard Rock
*Country: Germany (IMG:https://metalarea.org/forum/style_images/flags/Germany.png)
*Format: mp3@CBR320kbps
*Size: 108MB

Tracklist:
1. The Hutch 01:07
2. Running to Paradise 04:25
3. Beat of the Heart 03:30
4. D.A.M.N. 04:45
5. Snowdance 04:13
6. Thirty 5 04:02
7. Already Gone 03:44
8. False Freedom 04:50
9. Goodbye to You 04:18
10. Rocky Road 06:32
11. Paris Is Burning 04:08
******************************
Total playing time: 45:34

Extended info
Jürgen Breforth - Guitars (rhythm) (1981-1989, 1999, 2005-present) See also: ex-Tanner
Michael Voss - Vocals (lead) (1983-1987, 1999, 2005-present), Guitars (lead) (1985-1987, 1999, 2005-present) See also: Wolfpakk, Beggar's Bride, Beggar's Jam, Phantom 5, Rock Wolves, ex-Michael Schenker's Temple of Rock, ex-20th Century Boys, ex-Bonfire, ex-Casanova, ex-Demon Drive, ex-Silver
Axel Kruse - Drums (1984-1989, 2005-2007, 2011-present) See also: Phantom 5, ex-Jaded Heart
Thomas "Hutch" Bauer - Bass (2015-present) See also: Evidence One, ex-Waste, State Of Rock, ex-Domain, ex-Frontline


Technical info
(IMG:https://metalarea.org/images/spectrogram/2018_Aug/0cc8d5d77999cf90d5f1b4ef17e5d003.png)
Input File: 02 Running to Paradise.mp3
Channels : 2
Sample Rate : 44100
Precision : 16-bit
Duration : 00:04:25.52 = 11709564 samples = 19914.2 CDDA sectors
File Size : 11.0M
Bit Rate : 330k
Sample Encoding: MPEG audio (layer I, II or III)
Comments :
Title=Running To Paradise
Artist=Mad Max
Album=35
Tracknumber=02/11
Year=2018
Genre=Rock
Discnumber=1/1



Register


Go to the top of the page
  Insert nick Quick quote
+Quote Post
 
Start new topic
Replies (1 - 2)
post Aug 9 2018, 12:52:10
Post #2

Аннигилятор пивА
Group Icon
Group: V.I.P
Posts: 49,521
Releases: 15311
From: Koenigsberg - TILZIT
On Forums: 12 years 4 months
Thanks: 333686 time(s)
Russian Federation


MIRROR
Register



Thanks:
(1) Herrant,
Go to the top of the page
  Insert nick Quick quote
+Quote Post
post Aug 12 2018, 08:05:27
Post #3

Пять Литров
*****
Group: Металариец
Posts: 420
Releases: 0
On Forums: 12 years 9 months
Thanks: 13 time(s)
Russian Federation


A big thank you!
Go to the top of the page
  Insert nick Quick quote
+Quote Post

Reply to this topicStart new topic
1 User(s) are reading this topic (1 Guests and 0 Anonymous Users)
0 Members:

 



- Lo-Fi Version Support form
Copyrights and abuse reports form
Time is now: 20th October 2018 - 23:03:09