Welcome Guest ( Log In | Register )

> Releases Upload / Добавление релизов

Добавить релиз тут / Click here to add release
Рекомендованные обменники / Recommended file shares

> Aethereus - Absentia (2018), Progressive/Technical Death Metal
post Aug 9 2018, 11:40:38
Post #1

Правь статус, ####!111
**************
Group: Металариец
Posts: 13,950
Releases: 9734
From: Г.Харьков
On Forums: 6 years 3 months
Thanks: 159783 time(s)
Unknown


(IMG:http://metalarea.org/images/audiocovers/2018_Aug/acov_tid309182_thumb.jpg)

*Artist: Aethereus
*Album: Absentia
*Year: 2018
*Genre: Progressive/Technical Death Metal
*Country: United States (IMG:http://metalarea.org/forum/style_images/flags/United%20States.png)
*Format: mp3@CBR320kbps
*Size: 98MB

Tracklist:
1. Cascades of Light 06:35
2. Writhe 05:05
3. Mortal Abrogation 01:35
4. Fluorescent Halls of Decay 07:41
5. Absentia 04:22
6. That Which Is Left Behind 05:17
7. The Black Circle 03:16
8. With You, I Walk 01:02
9. The Pale Beast 06:46
******************************
Total playing time: 41:39




Extended info
Benjamin Gassman Guitars
Kyle Chapman Guitars, Vocals
Matt Behner Drums
Vance Bratcher Vocals
Scott Hermanns Bass


Technical info
(IMG:http://metalarea.org/images/spectrogram/2018_Aug/57e274e98365ff331ae3fc978a80fce1.png)
Input File: 02 Writhe.mp3
Channels : 2
Sample Rate : 44100
Precision : 16-bit
Duration : 00:05:05.07 = 13453763 samples = 22880.5 CDDA sectors
File Size : 12.5M
Bit Rate : 328k
Sample Encoding: MPEG audio (layer I, II or III)
Comments :
Title=Writhe
Artist=Aethereus
Album=Absentia
Tracknumber=02/09
Year=2018
Genre=Metal
Discnumber=1/1



Register


Go to the top of the page
  Insert nick Quick quote
+Quote Post
 
Start new topic
Replies (1 - 2)
post Aug 9 2018, 12:53:16
Post #2

Правь статус, ####!111
**************
Group: Металариец
Posts: 13,950
Releases: 9734
From: Г.Харьков
On Forums: 6 years 3 months
Thanks: 159783 time(s)
Unknown


Cloud Mail 320
Register
Go to the top of the page
  Insert nick Quick quote
+Quote Post
post Aug 10 2018, 20:11:03
Post #3

В чистоте и единстве:мысль-слово-дело
**************
Group: Металариец
Posts: 2,263
Releases: 9
From: Киев
On Forums: 11 years 1 month
Thanks: 1252 time(s)
Ukraine


Потрясающий альбом. Можно даже добавить мелодик.


Thanks:
Go to the top of the page
  Insert nick Quick quote
+Quote Post

Reply to this topicStart new topic
2 User(s) are reading this topic (2 Guests and 0 Anonymous Users)
0 Members:

 



- Lo-Fi Version Support form
Copyrights and abuse reports form
Time is now: 21st August 2018 - 08:55:49