Welcome Guest ( Log In | Register )

> Sinaya - Maze Of Madness (2018), Old School Thrash/Death Metal
post Aug 9 2018, 11:54:02
Post #1

Правь статус, ####!111
**************
Group: Металариец
Posts: 15,322
Releases: 10460
From: Г.Харьков
On Forums: 6 years 7 months
Thanks: 173429 time(s)
Unknown


(IMG:http://metalarea.org/images/audiocovers/2018_Aug/acov_tid309183_thumb.jpg)

*Artist: Sinaya
*Album: Maze Of Madness
*Year: 2018
*Genre: Old School Thrash/Death Metal
*Country: Brazil (IMG:http://metalarea.org/forum/style_images/flags/Brazil.png)
*Format: mp3@CBR320kbps
*Size: 88MB

Tracklist:
1. Life Against Fate 05:09
2. Abyss to Death 04:21
3. Always Pain 04:30
4. Bath of Memories 04:25
5. Crowd in Panic 04:29
6. Infernal Sight 04:29
7. Deep in the Grave 04:54
8. Buried by Terror 04:32
******************************
Total playing time: 36:49



Extended info
Camila Toledo Bass
Mylena Monaco Bass, Vocals (lead, backing), Guitars (rhythm)
Renata Petrelli Guitars (rhythm, lead), Bass
Bruna Melo Bass


Technical info
(IMG:http://metalarea.org/images/spectrogram/2018_Aug/78b6ff96c10b30069ce17b7203173b36.png)
Input File: 03 Always Pain.mp3
Channels : 2
Sample Rate : 44100
Precision : 16-bit
Duration : 00:04:30.83 = 11943427 samples = 20312 CDDA sectors
File Size : 11.2M
Bit Rate : 332k
Sample Encoding: MPEG audio (layer I, II or III)
Comments :
Title=Always Pain
Artist=Sinaya
Album=Maze Of Madness
Tracknumber=03/08
Year=2018
Genre=Metal
Discnumber=1/1



Register


Go to the top of the page
  Insert nick Quick quote
+Quote Post
 
Start new topic
Replies (1 - 3)
post Aug 9 2018, 12:55:45
Post #2

Правь статус, ####!111
**************
Group: Металариец
Posts: 15,322
Releases: 10460
From: Г.Харьков
On Forums: 6 years 7 months
Thanks: 173429 time(s)
Unknown


Cloud Mail 320
Register


Thanks:
Go to the top of the page
  Insert nick Quick quote
+Quote Post
post Aug 9 2018, 17:56:43
Post #3

hearer & reader
**************
Group: Металариец
Posts: 7,223
Releases: 92
From: Moscow
On Forums: 11 years 3 months
Thanks: 6871 time(s)
Russian Federation



дамы жгут
По музыке, боюсь, ничего интересного. А рычит зачётно.


Thanks:
Go to the top of the page
  Insert nick Quick quote
+Quote Post
post Aug 10 2018, 08:10:54
Post #4

hearer & reader
**************
Group: Металариец
Posts: 7,223
Releases: 92
From: Moscow
On Forums: 11 years 3 months
Thanks: 6871 time(s)
Russian Federation


А ещё мне понравился #4, надо всё же дувушек послушать.
Go to the top of the page
  Insert nick Quick quote
+Quote Post

Reply to this topicStart new topic
1 User(s) are reading this topic (1 Guests and 0 Anonymous Users)
0 Members:

 



- Lo-Fi Version Support form
Copyrights and abuse reports form
Time is now: 13th December 2018 - 15:13:31