Welcome Guest ( Log In | Register )

 
Reply to this topicStart new topic
> Disinterested Handjob - Death Metal Grammar Nazis [single] (2018), Grindcore (D37)
post Aug 9 2018, 12:06:13
Post #1

Serial Uploader
Group Icon
Group: V.I.P
Posts: 33,278
Releases: 31556
From: Lithuania
On Forums: 10 years 5 months
Thanks: 360412 time(s)
Lithuania


(IMG:https://metalarea.org/images/audiocovers/2018_Aug/acov_tid309185_thumb.jpg)

*Artist: Disinterested Handjob
*Album: Death Metal Grammar Nazis [single]
*Year: 2018
*Genre: Grindcore
*Country: Australia (IMG:https://metalarea.org/forum/style_images/flags/Australia.png)
*Format: mp3@CBR320kbps
*Size: 2MB

Tracklist:
01. Death Metal Grammar Nazis 00:15
02. Chinese Art 00:35
******************************
Total playing time: 0:50




Technical info
(IMG:https://metalarea.org/images/spectrogram/2018_Aug/2d58935815cb15c5459f133bc2eeb917.png)
Input File: 02. Chinese Art.mp3
Channels : 2
Sample Rate : 44100
Precision : 16-bit
Duration : 00:00:35.53 = 1566785 samples = 2664.6 CDDA sectors
File Size : 1.53M
Bit Rate : 345k
Sample Encoding: MPEG audio (layer I, II or III)
Comments :
Title=Chinese Art
Artist=Disinterested Handjob
Album=Death Metal Grammar Nazis
Tracknumber=2
Year=2018



Register


Thanks:
(1) Rosen,
Go to the top of the page
  Insert nick Quick quote
+Quote Post

Reply to this topicStart new topic
2 User(s) are reading this topic (2 Guests and 0 Anonymous Users)
0 Members:

 



- Lo-Fi Version Support form
Copyrights and abuse reports form
Time is now: 14th November 2018 - 01:31:44