Welcome Guest ( Log In | Register )

> Return To Void - Memory Shift: The Day After (2018), Progressive Metal
post Aug 9 2018, 12:07:20
Post #1

Аннигилятор пивА
Group Icon
Group: V.I.P
Posts: 49,521
Releases: 15311
From: Koenigsberg - TILZIT
On Forums: 12 years 4 months
Thanks: 333685 time(s)
Russian Federation


(IMG:https://metalarea.org/images/audiocovers/2018_Aug/acov_tid309186_thumb.jpg)

*Artist: Return To Void
*Album: Memory Shift: The Day After
*Year: 2018
*Genre: Progressive Metal
*Country: Finland (IMG:https://metalarea.org/forum/style_images/flags/Finland.png)
*Format: mp3@CBR320kbps
*Size: 114MB

Tracklist:
01. Secret Societies
02. Man of the Sword
03. Midlands
04. Scars Are Real
05. Ionosphere of the Dark
06. The Atlantis
07. Passenger
08. Between Horizons
09. Divine Thunder
10. Terra
******************************
Total playing time: 48:51




Extended info
Markku Pihlaja, Voc
Saku Hakuli, Gtr
Antti Huopainen, Keys
Pasi Hakuli, Bass
Kalke Kukkonen, Drums


Technical info
(IMG:https://metalarea.org/images/spectrogram/2018_Aug/b9ef39000e19fd742448920f8d4cbe0d.png)
Input File: 02 Man of the Sword.mp3
Channels : 2
Sample Rate : 44100
Precision : 16-bit
Duration : 00:04:41.20 = 12400788 samples = 21089.8 CDDA sectors
File Size : 11.5M
Bit Rate : 327k
Sample Encoding: MPEG audio (layer I, II or III)
Comments :
Title=Man Of The Sword
Artist=Return To Void
Album=Memory Shift: The Day After
Tracknumber=02/10
Year=2018
Genre=Rock
Discnumber=1/1



Register


Go to the top of the page
  Insert nick Quick quote
+Quote Post
 
Start new topic
Replies (1 - 2)
post Aug 9 2018, 12:51:04
Post #2

Аннигилятор пивА
Group Icon
Group: V.I.P
Posts: 49,521
Releases: 15311
From: Koenigsberg - TILZIT
On Forums: 12 years 4 months
Thanks: 333685 time(s)
Russian Federation



MIRROR
Register


Thanks:
Go to the top of the page
  Insert nick Quick quote
+Quote Post
post Aug 9 2018, 17:36:29
Post #3

hearer & reader
**************
Group: Металариец
Posts: 6,973
Releases: 89
From: Moscow
On Forums: 11 years 1 month
Thanks: 6693 time(s)
Russian Federation


У них дебютник выходил в прошлом году, тут не нашёл. Вот, слушаю, неплохо тоже.. Но менее металлический.
Go to the top of the page
  Insert nick Quick quote
+Quote Post

Reply to this topicStart new topic
1 User(s) are reading this topic (1 Guests and 0 Anonymous Users)
0 Members:

 



- Lo-Fi Version Support form
Copyrights and abuse reports form
Time is now: 20th October 2018 - 22:34:12