Welcome Guest ( Log In | Register )

> Disinterested Handjob - Matrons And The Rectal Dilators [ep] (2018), Grindcore (D37)
post Aug 9 2018, 12:20:45
Post #1

Serial Uploader
Group Icon
Group: V.I.P
Posts: 33,280
Releases: 31557
From: Lithuania
On Forums: 10 years 5 months
Thanks: 360485 time(s)
Lithuania


(IMG:https://metalarea.org/images/audiocovers/2018_Aug/acov_tid309188_thumb.jpg)

*Artist: Disinterested Handjob
*Album: Matrons And The Rectal Dilators [ep]
*Year: 2018
*Genre: Grindcore
*Country: Australia (IMG:https://metalarea.org/forum/style_images/flags/Australia.png)
*Format: mp3@CBR320kbps
*Size: 20MB

Tracklist:
01. Faecal Gravity 00:23
02. Internal Decapitation 00:45
03. At Least It's Not Human Urine 00:28
04. Screw 00:47
05. The Enrichment Of All Things Through Use Of Profanity 00:27
06. Guns For Show Knives For Go 00:29
07. Partial Birth Abortion 00:31
08. Brutal Deaf Metal 00:17
09. Cruelty Based Imagineering 00:37
10. Relocation Of The Beast 00:21
11. Matrons And The Rectal Dilators 01:02
******************************
Total playing time: 6:07




Technical info
(IMG:https://metalarea.org/images/spectrogram/2018_Aug/83cf2f14cb7a30d1871fc559495cab54.png)
Input File: 02. Internal Decapitation.mp3
Channels : 2
Sample Rate : 44100
Precision : 16-bit
Duration : 00:00:45.51 = 2006859 samples = 3413.03 CDDA sectors
File Size : 1.94M
Bit Rate : 341k
Sample Encoding: MPEG audio (layer I, II or III)
Comments :
Title=Internal Decapitation
Artist=Disinterested Handjob
Album=Matrons And The Rectal Dilators EP
Tracknumber=2
Year=2018



Register


Thanks:
(2) Rosen, terron,
Go to the top of the page
  Insert nick Quick quote
+Quote Post
 
Start new topic
Replies (1 - 1)
post Aug 9 2018, 13:46:13
Post #2

Правь статус, ####!111
**************
Group: Металариец
Posts: 2,810
Releases: 0
From: Одесса
On Forums: 10 years 8 months
Thanks: 1168 time(s)
Ukraine


(IMG:style_emoticons/default/22.gif) (IMG:style_emoticons/default/22.gif) (IMG:style_emoticons/default/22.gif) (IMG:style_emoticons/default/22.gif)
If pain persists please just top yourself

- and -

rectal dilators are not toys - use responsibly

(IMG:style_emoticons/default/21.gif)
Go to the top of the page
  Insert nick Quick quote
+Quote Post

Reply to this topicStart new topic
2 User(s) are reading this topic (2 Guests and 0 Anonymous Users)
0 Members:

 



- Lo-Fi Version Support form
Copyrights and abuse reports form
Time is now: 15th November 2018 - 02:41:21