Welcome Guest ( Log In | Register )

> Imperial Domain - The Deluge (2018), Melodic Death Metal
post Aug 9 2018, 12:21:35
Post #1

Правь статус, ####!111
**************
Group: Металариец
Posts: 15,343
Releases: 10472
From: Г.Харьков
On Forums: 6 years 7 months
Thanks: 173698 time(s)
Unknown


(IMG:http://metalarea.org/images/audiocovers/2018_Aug/acov_tid309189_thumb.jpg)

*Artist: Imperial Domain
*Album: The Deluge
*Year: 2018
*Genre: Melodic Death Metal
*Country: Sweden (IMG:http://metalarea.org/forum/style_images/flags/Sweden.png)
*Format: mp3@CBR320kbps
*Size: 91MB

Tracklist:
01. True Face of War
02. The Deluge
03. The Future is Lost
04. Conspiracy
05. Withdrawn from Life
06. Eternal
07. Evanescent
08. Ever Since that Day
******************************
Total playing time: 38:43



Extended info
Alvaro Svanerö Drums
Peter Laitinen Guitars, Bass
Philip Borg Guitars, Bass
Andreas Öman Vocals



Technical info
(IMG:http://metalarea.org/images/spectrogram/2018_Aug/c7cea8a2ded9c26a07f740d26d1fc8e8.png)
Input File: 02 The Deluge.mp3
Channels : 2
Sample Rate : 44100
Precision : 16-bit
Duration : 00:00:00.32 = 13980 samples = 23.7755 CDDA sectors
File Size : 13.1M
Bit Rate : 330M
Sample Encoding: MPEG audio (layer I, II or III)
Comments :
Title=The Deluge
Artist=Imperial Domain
Album=The Deluge
Tracknumber=02/08
Year=2018-18-20
Genre=Metal
Discnumber=1/1



Register


Go to the top of the page
  Insert nick Quick quote
+Quote Post
 
Start new topic
Replies (1 - 5)
post Aug 9 2018, 12:57:33
Post #2

Правь статус, ####!111
**************
Group: Металариец
Posts: 15,343
Releases: 10472
From: Г.Харьков
On Forums: 6 years 7 months
Thanks: 173698 time(s)
Unknown


Cloud Mail 320
Register


Thanks:
Go to the top of the page
  Insert nick Quick quote
+Quote Post
post Aug 9 2018, 17:43:52
Post #3

Ъ
**************
Group: Металариец
Posts: 9,273
Releases: 9
On Forums: 9 years 11 months
Thanks: 1777 time(s)
Sweden


Унылое превью.
Go to the top of the page
  Insert nick Quick quote
+Quote Post
post Aug 9 2018, 22:15:51
Post #4

Тридцать лет на борту "Тяжёлого" крейсера
***********
Group: Металариец
Posts: 1,871
Releases: 0
From: Питер
On Forums: 11 years 6 months
Thanks: 433 time(s)
Russian Federation


Не, превью норм..с выпуском альбома ребята лет на 15 минимум опоздали
..и то сказать - предыдущий-то аккурат в 2003-м выходил, там и остались
Сносный MDM, но дюже нафталиновый. Местами Sentenced вдруг проскальзывает так ненавязчиво
Фоном пойдёт под пивас


Go to the top of the page
  Insert nick Quick quote
+Quote Post
post Sep 26 2018, 11:18:38
Post #5

добрый мизантроп
***********
Group: Металариец
Posts: 1,631
Releases: 0
From: Минск
On Forums: 8 years 1 month
Thanks: 490 time(s)
Madagascar


По клипам отл. МДМ
Go to the top of the page
  Insert nick Quick quote
+Quote Post
post Oct 3 2018, 16:03:39
Post #6

Stultus Anethum Siccum.
******
Group: Металариец
Posts: 618
Releases: 0
On Forums: 9 years 10 months
Thanks: 68 time(s)
Unknown


Замечательный Old School MDM!
Кстати, почему релизёр не указал на "олдскульность" в шапке темы, как обычно это делает некоторый другой релизёр? (IMG:style_emoticons/default/1488.gif) (IMG:style_emoticons/default/smile3.gif)
Go to the top of the page
  Insert nick Quick quote
+Quote Post

Reply to this topicStart new topic
1 User(s) are reading this topic (1 Guests and 0 Anonymous Users)
0 Members:

 



- Lo-Fi Version Support form
Copyrights and abuse reports form
Time is now: 15th December 2018 - 12:00:22