Welcome Guest ( Log In | Register )

 
Reply to this topicStart new topic
> Dagon - Four Paths To Lunacy [demo] (1991), Death Metal
post Aug 9 2018, 12:22:27
Post #1

Подвал
**************
Group: Металариец
Posts: 12,608
Releases: 7091
From: Far East (Khabarovsk)
On Forums: 9 years 8 months
Thanks: 65528 time(s)
Russian Federation


(IMG:http://metalarea.org/images/audiocovers/2018_Aug/acov_tid309190_thumb.jpg)

*Artist: Dagon
*Album: Four Paths To Lunacy [demo]
*Year: 1991
*Genre: Death Metal
*Country: France (IMG:http://metalarea.org/forum/style_images/flags/France.png)
*Format: mp3@CBR192kbps
*Size: 27MB

Tracklist:
1. Relieve My Pain 05:04
2. Self-Burial 05:55
3. Fear And Hatred 05:26
4. Rotten Soul 03:26
******************************
Total playing time: 19:51

Technical info
(IMG:http://metalarea.org/images/spectrogram/2018_Aug/ab354377aa7c67700e1cc357a5e77e2c.png)
Input File: 01-Relieve My Pain.mp3
Channels : 2
Sample Rate : 44100
Precision : 16-bit
Duration : 00:05:05.04 = 13452220 samples = 22877.9 CDDA sectors
File Size : 7.32M
Bit Rate : 192k
Sample Encoding: MPEG audio (layer I, II or III)
Comments :
Title=Relieve My Pain
Artist=Dagon (Fra)
Album=Four Paths To Lunacy (Demo)
Tracknumber=01
Year=1991
Genre=Death Metal



Register


Go to the top of the page
  Insert nick Quick quote
+Quote Post

Reply to this topicStart new topic
1 User(s) are reading this topic (1 Guests and 0 Anonymous Users)
0 Members:

 



- Lo-Fi Version Support form
Copyrights and abuse reports form
Time is now: 22nd October 2018 - 10:50:18