Welcome Guest ( Log In | Register )

> 

Здесь релизы с живыми прямыми ссылками на lossless

 
Reply to this topicStart new topic
> The Spirit - Sounds From The Vortex (2017), Melodic Black/Death Metal
post Aug 9 2018, 12:34:05
Post #1

Правь статус, ####!111
**************
Group: Металариец
Posts: 21,968
Releases: 15159
From: Г.Харьков
On Forums: 8 years 3 weeks
Thanks: 275256 time(s)
Unknown


(IMG:http://metalarea.org/images/audiocovers/2018_Aug/acov_tid309191_thumb.jpg)

*Artist: The Spirit
*Album: Sounds From The Vortex
*Year: 2017
*Genre: Melodic Black/Death Metal
*Country: Germany (IMG:http://metalarea.org/forum/style_images/flags/Germany.png)
*Format: mp3@CBR320kbps
*Size: 93MB

Tracklist:
1. Sounds from the Vortex 02:29
2. Cosmic Fear 04:27
3. The Clouds of Damnation 07:15
4. Cross the Bridge to Eternity 06:15
5. Illuminate the Night Sky 05:44
6. The Great Mortality 05:35
7. Fields of the Unknown 06:17
******************************
Total playing time: 38:02



Extended info
MS Drums
AK Guitars
MT Guitars, Vocals (2015-present)
AT Bass (2016-present)



Technical info
(IMG:http://metalarea.org/images/spectrogram/2018_Aug/72694fcd56b9bf2cbec1d85e032dd534.png)
Input File: 02. Cosmic Fear.mp3
Channels : 2
Sample Rate : 44100
Precision : 16-bit
Duration : 00:04:27.14 = 11780962 samples = 20035.6 CDDA sectors
File Size : 11.5M
Bit Rate : 343k
Sample Encoding: MPEG audio (layer I, II or III)
Comments :
Title=Cosmic Fear
Artist=The Spirit
Album=Sounds from the Vortex
Tracknumber=2
Year=2017
Genre=Metal
Discnumber=1



Register


Go to the top of the page
  Insert nick Quick quote
+Quote Post
post Aug 9 2018, 13:05:51
Post #2

Правь статус, ####!111
**************
Group: Металариец
Posts: 21,968
Releases: 15159
From: Г.Харьков
On Forums: 8 years 3 weeks
Thanks: 275256 time(s)
Unknown


Cloud Mail 320
Register


Go to the top of the page
  Insert nick Quick quote
+Quote Post
post Aug 9 2018, 18:01:51
Post #3

Ъ
**************
Group: Металариец
Posts: 10,097
Releases: 9
On Forums: 11 years 4 months
Thanks: 2022 time(s)
Sweden


Послушал треки с превью, неплохо, можно на раз прогнать.
Go to the top of the page
  Insert nick Quick quote
+Quote Post
post Aug 10 2018, 18:09:20
Post #4

Правь статус, ####!111
**************
Group: Металариец
Posts: 3,022
Releases: 8
From: Dnipro
On Forums: 11 years 10 months
Thanks: 978 time(s)
Ukraine


ЦИТАТА(DenisKov @ Aug 9 2018, 20:01:51) *
Послушал треки с превью, неплохо, можно на раз прогнать.

А два раза слабо? (IMG:style_emoticons/default/1488.gif)
Go to the top of the page
  Insert nick Quick quote
+Quote Post
post Aug 11 2018, 19:35:52
Post #5

MDM-Thrash Metal
**************
Group: Металариец
Posts: 9,539
Releases: 866
From: Одесса
On Forums: 12 years 9 months
Thanks: 22702 time(s)
Ukraine


Я уже альбом раз 7 прослушал (дабы он не слишком длинный). Отличная работа!


Thanks:
(1) nunim,
Go to the top of the page
  Insert nick Quick quote
+Quote Post
post Sep 29 2018, 18:45:34
Post #6
BAN
Banned till
Jun 20 2038, 18:19:39



хороши все-таки
Go to the top of the page
  Insert nick Quick quote
+Quote Post
post Feb 7 2020, 00:37:20
Post #7

Group: Подсевший
Posts: 19
Releases: 0
On Forums: 9 months 1 week
Thanks: 1 time(s)
Brazil


lossless please
Go to the top of the page
  Insert nick Quick quote
+Quote Post
post Feb 7 2020, 17:53:24
Post #8

Group Icon
Group: S-moderation team
Posts: 15,579
Releases: 1440
From: Zagreb
On Forums: 9 years 3 months
Thanks: 69454 time(s)
Croatia


Register


Thanks:
Go to the top of the page
  Insert nick Quick quote
+Quote Post
post Feb 11 2020, 10:20:20
Post #9

Правь статус, ####!111
**************
Group: Металариец
Posts: 2,902
Releases: 0
From: MoscoW
On Forums: 13 years 6 months
Thanks: 2228 time(s)
Russian Federation


Go to the top of the page
  Insert nick Quick quote
+Quote Post

Reply to this topicStart new topic
1 User(s) are reading this topic (1 Guests and 0 Anonymous Users)
0 Members:

 



- Lo-Fi Version Support form
Copyrights and abuse reports form
Time is now: 6th June 2020 - 09:31:30