Welcome Guest ( Log In | Register )

> Vatika - Act No: 1 (2018), Thrash/Heavy Metal
post Aug 9 2018, 12:51:21
Post #1

Правь статус, ####!111
**************
Group: Металариец
Posts: 14,612
Releases: 10085
From: Г.Харьков
On Forums: 6 years 5 months
Thanks: 166202 time(s)
Unknown


(IMG:http://metalarea.org/images/audiocovers/2018_Aug/acov_tid309193_thumb.jpg)

*Artist: Vatika
*Album: Act No: 1
*Year: 2018
*Genre: Thrash/Heavy Metal
*Country: Netherlands (IMG:http://metalarea.org/forum/style_images/flags/Netherlands.png)
*Format: mp3@CBR320kbps
*Size: 98MB

Tracklist:
1. Act No1 - Nightwing
2. The Wolf
3. Inside This House
4. The Spirit White
5. Medusas Island
6. The Gathering
7. Never Again
8. Walk in Hell
9. Vatika
10. She Awakes
******************************
Total playing time: 41:14



Extended info


Technical info
(IMG:http://metalarea.org/images/spectrogram/2018_Aug/647ea1cc826e3d49c4cbfa4174faac3b.png)
Input File: 04 The Spirit White.mp3
Channels : 2
Sample Rate : 44100
Precision : 16-bit
Duration : 00:00:00.27 = 12083 samples = 20.5493 CDDA sectors
File Size : 11.3M
Bit Rate : 330M
Sample Encoding: MPEG audio (layer I, II or III)
Comments :
Title=The Spirit White
Artist=Vatika
Album=Act No. 1
Tracknumber=04/10
Year=2018-18-20
Genre=Metal
Discnumber=1/1



Register

Register


Go to the top of the page
  Insert nick Quick quote
+Quote Post
 
Start new topic
Replies (1 - 2)
post Aug 9 2018, 12:59:41
Post #2

\m/
Group Icon
Group: S-moderation team
Posts: 7,515
Releases: 19
From: Петропавловск-Камчатский
On Forums: 9 years 4 months
Thanks: 6829 time(s)
Russian Federation


Added links by aesteticvice
Go to the top of the page
  Insert nick Quick quote
+Quote Post
post Aug 9 2018, 13:02:05
Post #3

Аннигилятор пивА
Group Icon
Group: V.I.P
Posts: 49,543
Releases: 15321
From: Koenigsberg - TILZIT
On Forums: 12 years 4 months
Thanks: 333969 time(s)
Russian Federation


у меня альбом 41 минуту идет (IMG:style_emoticons/default/crazy.gif) 6 трэк добросил по ходу? хитрован
Go to the top of the page
  Insert nick Quick quote
+Quote Post

Reply to this topicStart new topic
1 User(s) are reading this topic (1 Guests and 0 Anonymous Users)
0 Members:

 



- Lo-Fi Version Support form
Copyrights and abuse reports form
Time is now: 22nd October 2018 - 10:30:53