Welcome Guest ( Log In | Register )

> Heaviest - The Wall Of Chaos-T (2018), Heavy Metal
post Aug 9 2018, 14:57:58
Post #1

Аннигилятор пивА
Group Icon
Group: V.I.P
Posts: 50,845
Releases: 15864
From: Koenigsberg - TILZIT
On Forums: 12 years 6 months
Thanks: 345935 time(s)
Russian Federation


(IMG:https://metalarea.org/images/audiocovers/2018_Aug/acov_tid309197_thumb.jpg)

*Artist: Heaviest
*Album: The Wall Of Chaos-T
*Year: 2018
*Genre: Heavy Metal
*Country: Brazil (IMG:https://metalarea.org/forum/style_images/flags/Brazil.png)
*Format: mp3@CBR320kbps
*Size: 118MB

Tracklist:
01. Like Those Ones
02. Thieves of Life
03. Blood
04. Can't You See
05. Fire It Up
06. Hunted
07. Kill the King
08. All of This
09. The End
10. Wake Up
11. E-Crime Suicide
******************************
Total playing time: 51:21



Extended info
Alax William (Voices), ,
Guto Mantesso (Guitars),
Renato Dias (Bass),
Vito Montanaro (Drums)


Technical info
(IMG:https://metalarea.org/images/spectrogram/2018_Aug/29ca9fb6937b7ea0d3ad7edb30329a97.png)
Input File: 03 Blood.mp3
Channels : 2
Sample Rate : 44100
Precision : 16-bit
Duration : 00:03:34.32 = 9451512 samples = 16074 CDDA sectors
File Size : 9.24M
Bit Rate : 345k
Sample Encoding: MPEG audio (layer I, II or III)
Comments :
Title=Blood
Artist=Heaviest
Album=The Wall of Chaos-T
Tracknumber=3/11
Year=2018
Genre=Rock
Discnumber=1/1



Register


Go to the top of the page
  Insert nick Quick quote
+Quote Post
 
Start new topic
Replies (1 - 3)
post Aug 10 2018, 07:52:48
Post #2

hearer & reader
**************
Group: Металариец
Posts: 7,229
Releases: 92
From: Moscow
On Forums: 11 years 3 months
Thanks: 6873 time(s)
Russian Federation


Сменили вокалиста, но никуда не продвинулись. Может, и хуже..
Окромя Fire It Up, всё примерно такое:

уг
Go to the top of the page
  Insert nick Quick quote
+Quote Post
post Aug 10 2018, 10:47:17
Post #3

Аннигилятор пивА
Group Icon
Group: V.I.P
Posts: 50,845
Releases: 15864
From: Koenigsberg - TILZIT
On Forums: 12 years 6 months
Thanks: 345935 time(s)
Russian Federation


MIRROR
Register

Go to the top of the page
  Insert nick Quick quote
+Quote Post
post Aug 10 2018, 21:15:30
Post #4

MDM-Thrash Metal
**************
Group: Металариец
Posts: 7,301
Releases: 423
From: Одесса
On Forums: 11 years 4 months
Thanks: 13882 time(s)
Ukraine


С музыкальной точки зрения очень даже и ничего. но вот вокал...Посильнее да помощнее сюда необходим!
Go to the top of the page
  Insert nick Quick quote
+Quote Post

Reply to this topicStart new topic
1 User(s) are reading this topic (1 Guests and 0 Anonymous Users)
0 Members:

 



- Lo-Fi Version Support form
Copyrights and abuse reports form
Time is now: 15th December 2018 - 12:04:00