Welcome Guest ( Log In | Register )

> Releases Upload / Добавление релизов

Добавить релиз тут / Click here to add release
Рекомендованные обменники / Recommended file shares

> Symphony Of Symbols - Historiocriticism (2018), Death Metal
post Aug 9 2018, 15:27:26
Post #1

Аннигилятор пивА
Group Icon
Group: V.I.P
Posts: 48,093
Releases: 14590
From: Koenigsberg - TILZIT
On Forums: 12 years 2 months
Thanks: 321262 time(s)
Russian Federation


(IMG:https://metalarea.org/images/audiocovers/2018_Aug/acov_tid309199_thumb.jpg)

*Artist: Symphony Of Symbols
*Album: Historiocriticism
*Year: 2018
*Genre: Death Metal
*Country: Hungary (IMG:https://metalarea.org/forum/style_images/flags/Hungary.png)
*Format: mp3@CBR320kbps
*Size: 147MB

Tracklist:
01. Flood 01:14
02. Dispersion 09:26
03. Gates 02:12
04. Pyramid Cities 07:52
05. Rings 01:08
06. Verity in the Legends 09:05
07. Giant Signs 01:14
08. Beyond Earth 09:15
09. In the Serve of Evil 01:39
10. The First Natoin, the Last Survivor 10:18
11. Everything Reveals 06:40
******************************
Total playing time: 1:00:03



Extended info
Tamás Mezey - Bass
István Forró - Drums
Sándor Szalkai - Guitars
Kovács Zoltán Frigyes - Vocals (2017-present) See also: Athame, Fall, Goblin Gore


Technical info
(IMG:https://metalarea.org/images/spectrogram/2018_Aug/1971cce9613dfdea28b5c1c2d15edcc1.png)
Input File: 01 Flood.mp3
Channels : 2
Sample Rate : 44100
Precision : 16-bit
Duration : 00:01:14.06 = 3266222 samples = 5554.8 CDDA sectors
File Size : 3.52M
Bit Rate : 380k
Sample Encoding: MPEG audio (layer I, II or III)
Comments :
Title=Flood
Artist=Symphony Of Symbols
Album=Historiocriticism
Tracknumber=1/11
Year=2018
Genre=Metal
Discnumber=1/1



Register


Go to the top of the page
  Insert nick Quick quote
+Quote Post
 
Start new topic
Replies (1 - 2)
post Aug 10 2018, 03:47:10
Post #2

Аннигилятор пивА
Group Icon
Group: V.I.P
Posts: 48,093
Releases: 14590
From: Koenigsberg - TILZIT
On Forums: 12 years 2 months
Thanks: 321262 time(s)
Russian Federation





Thanks:
(1) AHBAnep,
Go to the top of the page
  Insert nick Quick quote
+Quote Post
post Aug 13 2018, 19:21:48
Post #3

Аннигилятор пивА
Group Icon
Group: V.I.P
Posts: 48,093
Releases: 14590
From: Koenigsberg - TILZIT
On Forums: 12 years 2 months
Thanks: 321262 time(s)
Russian Federation


Монументальная олдовыая дэзяра, мне кажется вполне уместны теги техникал и атмосферик, есть и примесь египетского этноса...знатно режут... возможно где-то ассоциации с найлом и морбид энжелом, во всех случаях рекомендую любителям перечисленных компонентов (IMG:style_emoticons/default/smile1.gif)


Thanks:
(1) Язва,
Go to the top of the page
  Insert nick Quick quote
+Quote Post

Reply to this topicStart new topic
1 User(s) are reading this topic (1 Guests and 0 Anonymous Users)
0 Members:

 



- Lo-Fi Version Support form
Copyrights and abuse reports form
Time is now: 20th August 2018 - 01:58:27