Welcome Guest ( Log In | Register )

> Releases Upload / Добавление релизов

Добавить релиз тут / Click here to add release
Рекомендованные обменники / Recommended file shares

 
Reply to this topicStart new topic
> Tumba De Carne - Comunión [ep] (2018), Death Metal/Grindcore
post Aug 9 2018, 16:27:47
Post #1

Маньяк
**********
Group: Металариец
Posts: 1,346
Releases: 1137
From: Одесса
On Forums: 10 years 2 months
Thanks: 8836 time(s)
Ukraine


(IMG:http://metalarea.org/images/audiocovers/2018_Aug/acov_tid309200_thumb.jpg)

*Artist: Tumba De Carne
*Album: Comunión [ep]
*Year: 2018
*Genre: Death Metal/Grindcore
*Country: Argentina (IMG:http://metalarea.org/forum/style_images/flags/Argentina.png)
*Format: mp3@CBR320kbps
*Size: 39MB

Tracklist:
1. Nunca pierdo la posibilidad de cagarme la vida 01:06
2. Comunión 03:22
3. Tumba de Carne 06:01
4. Non Ego 05:52
******************************
Total playing time: 16:21



Extended info
Line - up:

Nicolas Martinez - Bass
Mateo Cassullo - Drums (ex-Lvganör)
Lucas Villalba - Guitars
Ivo Bisceglia - Guitars (Desidia)
Matias Fontana - Vocals

(IMG:https://www.metal-archives.com/images/3/5/4/0/3540436704_photo.jpg?2220)


Technical info
(IMG:http://metalarea.org/images/spectrogram/2018_Aug/68d433aa3a714fd21530bfd601cfcb01.png)
Input File: 01. Nunca pierdo la posibilidad de cagarme la vida.mp3
Channels : 2
Sample Rate : 48000
Precision : 16-bit
Duration : 00:01:06.19 = 3177360 samples ~ 4964.62 CDDA sectors
File Size : 2.65M
Bit Rate : 320k
Sample Encoding: MPEG audio (layer I, II or III)
Comments :
Title=Nunca pierdo la posibilidad de cagarme la vida
Artist=Tumba de Carne
Album=Comunion (EP)
Tracknumber=1
Year=2018
Genre=Death Metal / Grindcore



Register


Thanks:
Go to the top of the page
  Insert nick Quick quote
+Quote Post

Reply to this topicStart new topic
2 User(s) are reading this topic (2 Guests and 0 Anonymous Users)
0 Members:

 



- Lo-Fi Version Support form
Copyrights and abuse reports form
Time is now: 21st August 2018 - 08:53:32