Welcome Guest ( Log In | Register )

> Releases Upload / Добавление релизов

Добавить релиз тут / Click here to add release
Рекомендованные обменники / Recommended file shares

> Occelensbrigg - The Quest For The Star Mountain (2018), Raw Black Metal (D4)
post Aug 9 2018, 17:11:04
Post #1

Маньяк
**********
Group: Металариец
Posts: 1,353
Releases: 1051
From: Prešov
On Forums: 4 years 4 months
Thanks: 24199 time(s)
Slovakia


(IMG:http://metalarea.org/images/audiocovers/2018_Aug/acov_tid309202_thumb.jpg)

*Artist: Occelensbrigg
*Album: The Quest For The Star Mountain
*Year: 2018
*Genre: Raw Black Metal
*Country: Portugal (IMG:http://metalarea.org/forum/style_images/flags/Portugal.png)
*Format: mp3@CBR320kbps
*Size: 97MB

Tracklist:
1. The Revenge of the Imposing Oak Forest 09:48
2. Ancient Tree Crowned with the Stars 11:53
3. The Falling Guardians of Death and Life 07:38
4. Night of The Black Star 12:59
******************************
Total playing time: 42:18



Extended info
Harvest of Death, LP, MC.


Technical info
(IMG:http://metalarea.org/images/spectrogram/2018_Aug/b1168f43d1a02cc37c95cf1357baaeef.png)
Input File: 03. The Falling Guardians of Death and Life.mp3
Channels : 2
Sample Rate : 44100
Precision : 16-bit
Duration : 00:07:38.95 = 20239563 samples = 34421 CDDA sectors
File Size : 18.4M
Bit Rate : 321k
Sample Encoding: MPEG audio (layer I, II or III)
Comments :
Title=The Falling Guardians of Death and Life
Artist=Occelensbrigg
Album=The Quest For the Star Mountain
Tracknumber=03/04
Year=2018
Genre=Raw Black Metal



Register


Go to the top of the page
  Insert nick Quick quote
+Quote Post
 
Start new topic
Replies (1 - 4)
post Aug 10 2018, 07:22:59
Post #2

Буродел
***
Group: Завсегдатай
Posts: 229
Releases: 1
On Forums: 1 year 2 months
Thanks: 84 time(s)
Russian Federation


последнее время как-то много релизов из Португалии. раньше предвзято как-то относился к блэку из испании/португалии, но видимо стоит ему внимание уделить
а по сабжу - атмосферно мрачно, за окном как раз дождина поливает, самое оно в такую погоду слушать


Thanks:
Go to the top of the page
  Insert nick Quick quote
+Quote Post
post Aug 10 2018, 08:31:52
Post #3

Satan bless you!
**************
Group: Металариец
Posts: 3,206
Releases: 63
From: Москва
On Forums: 10 years 1 month
Thanks: 2757 time(s)
Russian Federation


Команды из Сlandestine Aldebaran Circle ваще достойные)


Thanks:
Go to the top of the page
  Insert nick Quick quote
+Quote Post
post Aug 10 2018, 15:05:02
Post #4

Group: Подсевший
Posts: 17
Releases: 0
On Forums: 4 months 3 weeks
Thanks: 4 time(s)
Unknown


Спасибо! I love the demo from earlier this year so good (IMG:style_emoticons/default/9.gif)
Go to the top of the page
  Insert nick Quick quote
+Quote Post
post Aug 14 2018, 18:54:16
Post #5

Три Литра
***
Group: Завсегдатай
Posts: 233
Releases: 0
On Forums: 9 months 3 weeks
Thanks: 87 time(s)
United States


Подпольные бандформирования иберийского полуострова сейчас очень высоко держат знамя Чёрного Метала в его самых сырых, грязных и антитварных проявлениях. И это очередной эталонный представитель
Go to the top of the page
  Insert nick Quick quote
+Quote Post

Reply to this topicStart new topic
2 User(s) are reading this topic (2 Guests and 0 Anonymous Users)
0 Members:

 



- Lo-Fi Version Support form
Copyrights and abuse reports form
Time is now: 21st August 2018 - 08:54:09