Welcome Guest ( Log In | Register )

> Elfonia - This Sonic Landscape (2005), Progressive Metal/Rock
post Aug 9 2018, 18:54:33
Post #1

Quaerite Lux in Tenebris
**********
Group: Металариец
Posts: 1,482
Releases: 18
From: Micsődőllő
On Forums: 8 years 4 months
Thanks: 2547 time(s)
Unknown


(IMG:https://metalarea.org/images/audiocovers/2018_Aug/acov_tid309205_thumb.jpg)

*Artist: Elfonia
*Album: This Sonic Landscape
*Year: 2005
*Genre: Progressive Metal/Rock
*Country: Mexico (IMG:https://metalarea.org/forum/style_images/flags/Mexico.png)
*Format: mp3@CBR320kbps
*Size: 139MB

Tracklist:
01. Gigantes 4 02:21
02. Mבquina 04:01
03. Soundscapes 05:20
04. Desaciertos 05:45
05. ...De los Libros del Tiempo 05:29
06. Camalיon 05:21
07. Letargo 03:22
08. Mañana 05:00
09. Traveling 03:41
10. Gigantes 1 04:54
11. Gigantes 2 07:03
12. Gigantes 3 04:56
******************************
Total playing time: 57:13

(IMG:https://metalarea.org/images/youtube.png)

Extended info
FLAC-Rip + Scans.

Female Vocal.


Technical info
(IMG:https://metalarea.org/images/spectrogram/2018_Aug/38f17babd4e1e6275bb3a502efc09e47.png)
Input File: 02. Máquina.mp3
Channels : 2
Sample Rate : 44100
Precision : 16-bit
Duration : 00:04:02.03 = 10673567 samples = 18152.3 CDDA sectors
File Size : 9.69M
Bit Rate : 320k
Sample Encoding: MPEG audio (layer I, II or III)
Comments :
Title=Máquina
Artist=Elfonía
Album=This Sonic Landscape
Tracknumber=2/12
Year=2005
Genre=92



Register


Go to the top of the page
  Insert nick Quick quote
+Quote Post
 
Start new topic
Replies (1 - 1)
post Aug 10 2018, 20:29:30
Post #2

21st Century Schizoid Man
**************
Group: Металариец
Posts: 5,380
Releases: 67
From: Moscow
On Forums: 10 years 6 months
Thanks: 4187 time(s)
Russian Federation


Великолепный альбом! В этом меланхолично-проговом ключе очень хорошо раскрылся голос Марселы Бовио.
Go to the top of the page
  Insert nick Quick quote
+Quote Post

Reply to this topicStart new topic
2 User(s) are reading this topic (2 Guests and 0 Anonymous Users)
0 Members:

 



- Lo-Fi Version Support form
Copyrights and abuse reports form
Time is now: 14th November 2018 - 01:13:24