Welcome Guest ( Log In | Register )

> Releases Upload / Добавление релизов

Добавить релиз тут / Click here to add release
Рекомендованные обменники / Recommended file shares

> Aenigma - Into The Abyss (2018), Symphonic/Gothic Metal
post Aug 9 2018, 19:51:48
Post #1

Аннигилятор пивА
Group Icon
Group: V.I.P
Posts: 48,093
Releases: 14590
From: Koenigsberg - TILZIT
On Forums: 12 years 2 months
Thanks: 321262 time(s)
Russian Federation


(IMG:https://metalarea.org/images/audiocovers/2018_Aug/acov_tid309206_thumb.jpg)

*Artist: Aenigma
*Album: Into The Abyss
*Year: 2018
*Genre: Symphonic/Gothic Metal
*Country: Italy (IMG:https://metalarea.org/forum/style_images/flags/Italy.png)
*Format: mp3@CBR320kbps
*Size: 87MB

Tracklist:
1. Beginning of the End 01:21
2. Falling (Into the Abyss) 03:31
3. Infected 03:48
4. Away from All 04:42
5. Essence of Life 03:36
6. Crimson Moon 05:48
7. City of Falling Stars 03:19
8. Sentence 04:10
9. The Sacrifice 04:46
10. Indistructible 04:52
******************************
Total playing time: 39:53



Extended info
Matteo Pasquini Drums (2013-present)
Caterina Bianchi Vocals (2013-present)
Lorenzo Ciurli Guitars (2014-present), Vocals (2014-present)
Valerio Mainardi Bass (2016-present)


Technical info
(IMG:https://metalarea.org/images/spectrogram/2018_Aug/42cfbca2f0e8240e3920646b4822b45b.png)
Input File: 02. Falling (Into the Abyss).mp3
Channels : 2
Sample Rate : 44100
Precision : 16-bit
Duration : 00:03:31.82 = 9341262 samples = 15886.5 CDDA sectors
File Size : 8.54M
Bit Rate : 323k
Sample Encoding: MPEG audio (layer I, II or III)
Comments :
Title=Falling (Into the Abyss)
Artist=Aenigma
Album=Into the Abyss
Tracknumber=2
Year=2018
Discnumber=1



Register


Go to the top of the page
  Insert nick Quick quote
+Quote Post
 
Start new topic
Replies (1 - 1)
post Aug 10 2018, 08:02:10
Post #2

hearer & reader
**************
Group: Металариец
Posts: 6,683
Releases: 84
From: Moscow
On Forums: 10 years 11 months
Thanks: 6544 time(s)
Russian Federation


По превью: привет, ещё один Evanescence! (IMG:style_emoticons/default/15.gif)
Тут (и, видимо, не только) вокал понатуральнее чуток:

Пропущу, на фон у меня много чего накоплено..
Go to the top of the page
  Insert nick Quick quote
+Quote Post

Reply to this topicStart new topic
1 User(s) are reading this topic (1 Guests and 0 Anonymous Users)
0 Members:

 



- Lo-Fi Version Support form
Copyrights and abuse reports form
Time is now: 20th August 2018 - 01:58:59