Welcome Guest ( Log In | Register )

 
Reply to this topicStart new topic
> Farcry - Singularity (2018), Progressive Thrash Metal
post Aug 9 2018, 20:26:01
Post #1

Аннигилятор пивА
Group Icon
Group: V.I.P
Posts: 50,265
Releases: 15596
From: Koenigsberg - TILZIT
On Forums: 12 years 5 months
Thanks: 338904 time(s)
Russian Federation


(IMG:https://metalarea.org/images/audiocovers/2018_Aug/acov_tid309207_thumb.jpg)

*Artist: Farcry
*Album: Singularity
*Year: 2018
*Genre: Progressive Thrash Metal
*Country: Hungary (IMG:https://metalarea.org/forum/style_images/flags/Hungary.png)
*Format: mp3@CBR320kbps
*Size: 62MB

Tracklist:
01. Knowledge
02. Singularity
03. Harmonium
04. September
05. Orange Clouds over the Blue Forest
06. Home
07. Black Wind
08. The Last Minute
09. Cemetery Dance
******************************
Total playing time: 28:02



Extended info
На этот раз инструментальный альбом...и он прекрасен
Patkós Péter - Bass (The Void, ex-Gire, ex-Goblin Gore)
Bajusz Károly - Drums (ex-Stratégia)
Kiss János Benedek - Guitars
Tamás Kiss - Guitars





Technical info
(IMG:https://metalarea.org/images/spectrogram/2018_Aug/5607143b915c2c0ed84c86e7456a9e06.png)
Input File: 03. Harmonium.mp3
Channels : 2
Sample Rate : 44100
Precision : 16-bit
Duration : 00:01:44.86 = 4624502 samples = 7864.8 CDDA sectors
File Size : 4.27M
Bit Rate : 326k
Sample Encoding: MPEG audio (layer I, II or III)
Comments :
Title=Harmonium
Artist=Farcry
Album=Singularity
Tracknumber=3
Year=2018
Discnumber=1



Register


Go to the top of the page
  Insert nick Quick quote
+Quote Post

Reply to this topicStart new topic
2 User(s) are reading this topic (2 Guests and 0 Anonymous Users)
0 Members:

 



- Lo-Fi Version Support form
Copyrights and abuse reports form
Time is now: 15th November 2018 - 02:56:46