Welcome Guest ( Log In | Register )

> Releases Upload / Добавление релизов

Добавить релиз тут / Click here to add release
Рекомендованные обменники / Recommended file shares

> Chaos Doctrine - Chaos Doctrine (2018), Progressive Death/Thrash Metal
post Aug 9 2018, 20:57:47
Post #1

Аннигилятор пивА
Group Icon
Group: V.I.P
Posts: 48,114
Releases: 14596
From: Koenigsberg - TILZIT
On Forums: 12 years 2 months
Thanks: 321382 time(s)
Russian Federation


(IMG:https://metalarea.org/images/audiocovers/2018_Aug/acov_tid309208_thumb.jpg)

*Artist: Chaos Doctrine
*Album: Chaos Doctrine
*Year: 2018
*Genre: Progressive Death/Thrash Metal
*Country: South Africa (IMG:https://metalarea.org/forum/style_images/flags/South%20Africa.png)
*Format: mp3@CBR320kbps
*Size: 75MB

Tracklist:
1. Intro 02:46
2. Dia de Los Muertos 04:02
3. F.T.G. 03:46
4. My Demise 10:16
5. Helix 01:03
6. Incubator 03:50
7. Cult 04:34
8. The Genocide Number 04:18
******************************
Total playing time: 34:35



Preview 3

Extended info
Metal band from Johannesburg, South Africa. We combine old school thrash/death metal with modern industrial to create a unique evolution in heavy metal.

Phil - Bass (2010-present)
Ralph - Drums (2010-present, 2017-present) See also: Brothering, ex-Misericord, ex-Tyburn, ex-Sacrifist
Ray - Guitars (2010-present)
Dr D - Vocals (2010-present)
Alec - Guitars (2013-present) See also: ex-Sacraphyx, ex-The Warinsane





Technical info
(IMG:https://metalarea.org/images/spectrogram/2018_Aug/db31e5adb9a91cd676f19b294764b279.png)
Input File: 02. Dia de Los Muertos.mp3
Channels : 2
Sample Rate : 44100
Precision : 16-bit
Duration : 00:04:01.80 = 10663468 samples = 18135.1 CDDA sectors
File Size : 9.77M
Bit Rate : 323k
Sample Encoding: MPEG audio (layer I, II or III)
Comments :
Title=Dia de Los Muertos
Artist=Chaos Doctrine
Album=Chaos Doctrine
Tracknumber=2
Genre=Метал
Discnumber=1



Register


Go to the top of the page
  Insert nick Quick quote
+Quote Post
 
Start new topic
Replies (1 - 3)
post Aug 10 2018, 11:52:19
Post #2

Аполітичний
**************
Group: Металариец
Posts: 5,146
Releases: 143
From: Тимчасово окупована територія - Юзівка
On Forums: 9 years 11 months
Thanks: 5354 time(s)
Ukraine


Я слышу грув вместо прога. (IMG:style_emoticons/default/crazy.gif) (IMG:style_emoticons/default/bye.gif)
Go to the top of the page
  Insert nick Quick quote
+Quote Post
post Aug 10 2018, 12:41:05
Post #3

Аннигилятор пивА
Group Icon
Group: V.I.P
Posts: 48,114
Releases: 14596
From: Koenigsberg - TILZIT
On Forums: 12 years 2 months
Thanks: 321382 time(s)
Russian Federation


ЦИТАТА(neoatheist @ Aug 10 2018, 10:52:19) *
Я слышу грув вместо прога. (IMG:style_emoticons/default/crazy.gif) (IMG:style_emoticons/default/bye.gif)

не читай в сети теги...ты возможно в одном из трех превьюшных клипа кусок его услышал (IMG:style_emoticons/default/1488.gif) и это не грув, тут есть примесь индастриала, симфы и тп, это как феар фактори обвинять в груве, опять же тут в основе дэт/ трэш классический, есть флюиды тех же министри
Go to the top of the page
  Insert nick Quick quote
+Quote Post
post Aug 10 2018, 18:24:43
Post #4

Аполітичний
**************
Group: Металариец
Posts: 5,146
Releases: 143
From: Тимчасово окупована територія - Юзівка
On Forums: 9 years 11 months
Thanks: 5354 time(s)
Ukraine


ЦИТАТА(aesteticvice @ Aug 10 2018, 14:41:05) *
не читай в сети теги...ты возможно в одном из трех превьюшных клипа кусок его услышал (IMG:style_emoticons/default/1488.gif) и это не грув, тут есть примесь индастриала, симфы и тп, это как феар фактори обвинять в груве, опять же тут в основе дэт/ трэш классический, есть флюиды тех же министри


Я не читал тэги в сети, но честно прослушал 3 превьюшных трека с Бэндкэмпа. (IMG:style_emoticons/default/yuh.gif)
Go to the top of the page
  Insert nick Quick quote
+Quote Post

Reply to this topicStart new topic
2 User(s) are reading this topic (2 Guests and 0 Anonymous Users)
0 Members:

 



- Lo-Fi Version Support form
Copyrights and abuse reports form
Time is now: 21st August 2018 - 08:53:11