Welcome Guest ( Log In | Register )

> Samhain - Praise The Night (2018), Black Metal
post Aug 10 2018, 03:09:42
Post #1

Правь статус, ####!111
**************
Group: Металариец
Posts: 15,301
Releases: 10448
From: Г.Харьков
On Forums: 6 years 7 months
Thanks: 173188 time(s)
Unknown


(IMG:http://metalarea.org/images/audiocovers/2018_Aug/acov_tid309211_thumb.jpg)

*Artist: Samhain
*Album: Praise The Night
*Year: 2018
*Genre: Black Metal
*Country: United States (IMG:http://metalarea.org/forum/style_images/flags/United%20States.png)
*Format: mp3@CBR320kbps
*Size: 120MB

Tracklist:
1. Burning Book of Blood 03:59
2. Serpents of the Sunday Sermon 04:06
3. Lady Wind's Bitter Kiss 04:29
4. The Mercilous One 03:39
5. Soulless 06:01
6. Praise the Night 04:44
7. Red Turns Their Eyes 06:53
8. Rape This World 03:25
9. (Death Is) Where I Begin 04:19
10. Through the Fog 05:08
11. The Power of Loss 04:55
******************************
Total playing time: 51:38



Extended info
Steven "Wisely" Dunn All instruments, Vocals


Technical info
(IMG:http://metalarea.org/images/spectrogram/2018_Aug/a1ad7ed867068a235b415dae6450ca8a.png)
Input File: 02 Serpents of the Sunday Sermon.mp3
Channels : 2
Sample Rate : 44100
Precision : 16-bit
Duration : 00:04:06.61 = 10875457 samples = 18495.7 CDDA sectors
File Size : 10.0M
Bit Rate : 325k
Sample Encoding: MPEG audio (layer I, II or III)
Comments :
Title=Serpents of the Sunday Sermon
Artist=Samhain
Album=Praise the Night
Tracknumber=2/11
Year=2018



Register


Go to the top of the page
  Insert nick Quick quote
+Quote Post
 
Start new topic
Replies (1 - 1)
post Aug 10 2018, 17:23:13
Post #2

Правь статус, ####!111
**************
Group: Металариец
Posts: 15,301
Releases: 10448
From: Г.Харьков
On Forums: 6 years 7 months
Thanks: 173188 time(s)
Unknown


Cloud Mail 320
Register


Thanks:
Go to the top of the page
  Insert nick Quick quote
+Quote Post

Reply to this topicStart new topic
1 User(s) are reading this topic (1 Guests and 0 Anonymous Users)
0 Members:

 



- Lo-Fi Version Support form
Copyrights and abuse reports form
Time is now: 11th December 2018 - 08:35:59