Welcome Guest ( Log In | Register )

> Releases Upload / Добавление релизов

Добавить релиз тут / Click here to add release
Рекомендованные обменники / Recommended file shares

 
Reply to this topicStart new topic
> Tongue Eating Louse - Voidwalker (2018), Blackened Sludge/Doom Metal
post Aug 10 2018, 03:28:26
Post #1

Правь статус, ####!111
**************
Group: Металариец
Posts: 13,950
Releases: 9734
From: Г.Харьков
On Forums: 6 years 3 months
Thanks: 159783 time(s)
Unknown


(IMG:http://metalarea.org/images/audiocovers/2018_Aug/acov_tid309212_thumb.jpg)

*Artist: Tongue Eating Louse
*Album: Voidwalker
*Year: 2018
*Genre: Blackened Sludge/Doom Metal
*Country: Canada (IMG:http://metalarea.org/forum/style_images/flags/Canada.png)
*Format: mp3@CBR320kbps
*Size: 97MB

Tracklist:
1. L'appel du Vide 17:26
2. Alchemy of the Void 11:32
3. Shaman of L.O.W. 13:15
******************************
Total playing time: 42:13




Extended info
Rob Kinsella - Guitar & Noise
Beau Jodoin - Guitar & Vocals
John Wood - Bass & Vocals
Nick Tooms - Drums


Technical info
(IMG:http://metalarea.org/images/spectrogram/2018_Aug/dc6e2ecf8d51a807912c2f8262fa0a09.png)
Input File: 02. Alchemy of the Void.mp3
Channels : 2
Sample Rate : 44100
Precision : 16-bit
Duration : 00:00:00.69 = 30517 samples = 51.8997 CDDA sectors
File Size : 27.8M
Bit Rate : 322M
Sample Encoding: MPEG audio (layer I, II or III)
Comments :
Title=Alchemy of the Void
Artist=Tongue Eating Louse
Album=Voidwalker
Tracknumber=2/3
Year=2018-18-20
Discnumber=1/1



Register


Go to the top of the page
  Insert nick Quick quote
+Quote Post

Reply to this topicStart new topic
2 User(s) are reading this topic (2 Guests and 0 Anonymous Users)
0 Members:

 



- Lo-Fi Version Support form
Copyrights and abuse reports form
Time is now: 21st August 2018 - 08:55:36