Welcome Guest ( Log In | Register )

> Profezia - Dodekaprofeton (2018), Black Metal (D5)
post Aug 10 2018, 03:40:07
Post #1

Правь статус, ####!111
**************
Group: Металариец
Posts: 14,905
Releases: 10230
From: Г.Харьков
On Forums: 6 years 6 months
Thanks: 168684 time(s)
Unknown


(IMG:http://metalarea.org/images/audiocovers/2018_Aug/acov_tid309213_thumb.jpg)

*Artist: Profezia
*Album: Dodekaprofeton
*Year: 2018
*Genre: Black Metal
*Country: Italy (IMG:http://metalarea.org/forum/style_images/flags/Italy.png)
*Format: mp3@CBR320kbps
*Size: 130MB

Tracklist:
1. Malachi 09:17
2. Nahum 12:01
3. Amos 04:49
4. Obadiah 03:13
5. Jonah 03:27
6. Zechariah 05:54
7. Zephaniah 17:42
******************************
Total playing time: 56:23



Extended info
International : Italy / Denmark / Norway
Kvasir All instruments
Ynleborgaz Drums
Domine Saevum Graven Lyrics
M. (R.I.P. 2017) Vocals


Technical info
(IMG:http://metalarea.org/images/spectrogram/2018_Aug/8f0f5f2a54f79c45f61e701627587f2a.png)
Input File: 03 - Amos.mp3
Channels : 2
Sample Rate : 44100
Precision : 16-bit
Duration : 00:04:49.09 = 12748737 samples = 21681.5 CDDA sectors
File Size : 11.7M
Bit Rate : 323k
Sample Encoding: MPEG audio (layer I, II or III)
Comments :
Title=Amos
Artist=Profezia
Album=Dodekaprofeton
Tracknumber=3
Year=2018



Register


Go to the top of the page
  Insert nick Quick quote
+Quote Post
 
Start new topic
Replies (1 - 4)
post Aug 10 2018, 14:24:31
Post #2

Правь статус, ####!111
**************
Group: Металариец
Posts: 34,440
Releases: 500
On Forums: 9 years 5 months
Thanks: 26593 time(s)
Russian Federation


Обложка в духе Proclamation (IMG:style_emoticons/default/25.gif)
Go to the top of the page
  Insert nick Quick quote
+Quote Post
post Aug 10 2018, 17:25:09
Post #3

Правь статус, ####!111
**************
Group: Металариец
Posts: 14,905
Releases: 10230
From: Г.Харьков
On Forums: 6 years 6 months
Thanks: 168684 time(s)
Unknown


Cloud Mail 320
Register


Thanks:
Go to the top of the page
  Insert nick Quick quote
+Quote Post
post Aug 11 2018, 03:47:06
Post #4

Правь статус, ####!111
**************
Group: Металариец
Posts: 2,414
Releases: 11
From: Canada
On Forums: 11 years 5 months
Thanks: 1524 time(s)
Canada




Thanks:
(1) RUSP73,
Go to the top of the page
  Insert nick Quick quote
+Quote Post
post Aug 11 2018, 16:22:05
Post #5

De Mysteriis Dom Sathanas
**************
Group: Металариец
Posts: 3,310
Releases: 63
From: Москва
On Forums: 10 years 4 months
Thanks: 2845 time(s)
Russian Federation


R.I.P Marco De Rosa (IMG:style_emoticons/default/6.gif)
Альбом красава! (IMG:style_emoticons/default/pray.gif)
Go to the top of the page
  Insert nick Quick quote
+Quote Post

Reply to this topicStart new topic
2 User(s) are reading this topic (2 Guests and 0 Anonymous Users)
0 Members:

 



- Lo-Fi Version Support form
Copyrights and abuse reports form
Time is now: 14th November 2018 - 01:21:20