Welcome Guest ( Log In | Register )

> Releases Upload / Добавление релизов

Добавить релиз тут / Click here to add release
Рекомендованные обменники / Recommended file shares

 
Reply to this topicStart new topic
> Contorted Mind - Tome Of Atrocious Revelation [ep] (2018), Brutal Death Metal
post Aug 10 2018, 04:12:46
Post #1

Правь статус, ####!111
**************
Group: Металариец
Posts: 13,950
Releases: 9734
From: Г.Харьков
On Forums: 6 years 3 months
Thanks: 159783 time(s)
Unknown


(IMG:http://metalarea.org/images/audiocovers/2018_Aug/acov_tid309214_thumb.jpg)

*Artist: Contorted Mind
*Album: Tome Of Atrocious Revelation [ep]
*Year: 2018
*Genre: Brutal Death Metal
*Country: Netherlands (IMG:http://metalarea.org/forum/style_images/flags/Netherlands.png)
*Format: mp3@CBR320kbps
*Size: 49MB

Tracklist:
1. Maledictive Quintessence Reborn 05:22
2. Abominable Epistemology 04:03
3. Foltering 03:32
4. Adulteration Of The Hallowed Apotheosis 04:56
5. Infested With Worms (Brodequin Cover) 02:33
******************************
Total playing time: 20:26




Extended info
Joel - Vocals
Thijs - Guitar
Justus - Bass
Jan - Drums


Technical info
(IMG:http://metalarea.org/images/spectrogram/2018_Aug/310401e3c4494051eea5383b056830fd.png)
Input File: Contorted Mind - Tome Of Atrocious Revelation - 02 Abominable Epistemology.mp3
Channels : 2
Sample Rate : 44100
Precision : 16-bit
Duration : 00:04:04.03 = 10761547 samples = 18302 CDDA sectors
File Size : 10.1M
Bit Rate : 332k
Sample Encoding: MPEG audio (layer I, II or III)
Comments :
Title=Abominable Epistemology
Artist=Contorted Mind
Album=Tome Of Atrocious Revelation (EP)
Tracknumber=2
Year=2018
Genre=Brutal Death Metal



Register


Go to the top of the page
  Insert nick Quick quote
+Quote Post

Reply to this topicStart new topic
2 User(s) are reading this topic (2 Guests and 0 Anonymous Users)
0 Members:

 



- Lo-Fi Version Support form
Copyrights and abuse reports form
Time is now: 21st August 2018 - 08:53:08