Welcome Guest ( Log In | Register )

> Releases Upload / Добавление релизов

Добавить релиз тут / Click here to add release
Рекомендованные обменники / Recommended file shares

> Meremoth - En El Final Del Camino (2018), Heavy Metal
post Aug 10 2018, 04:52:35
Post #1

Правь статус, ####!111
**************
Group: Металариец
Posts: 13,947
Releases: 9733
From: Г.Харьков
On Forums: 6 years 3 months
Thanks: 159706 time(s)
Unknown


(IMG:http://metalarea.org/images/audiocovers/2018_Aug/acov_tid309217_thumb.jpg)

*Artist: Meremoth
*Album: En El Final Del Camino
*Year: 2018
*Genre: Heavy Metal
*Country: Argentina (IMG:http://metalarea.org/forum/style_images/flags/Argentina.png)
*Format: mp3@CBR320kbps
*Size: 155MB

Tracklist:
1. En El Final Del Camino
2. Tu Aliado
3. Autista (Xirrossix cover)
4. Llevando Mi Vacio
5. Sos Parte De Mi
6. Venciendo El Dolor
7. Marcado Por El Metal
8. Pierdo El Control
9. Pelea Por Ti (feat. Red Frandany)
10. Sombras Del Pasado
11. Llevando Mi Vacio (feat. Daniel Padilla) (Bonus Track)
12. Pelea Por Ti (feat. Gabriel Chavez)
******************************
Total playing time: 1:07:41



Extended info
Walter Alaniz Bass
Fernando Palacios Drums
See also: Armorax
Ruben Palacios Guitars
See also: Armorax
Jorge Brelis Vocals
See also: Fenrir


Technical info
(IMG:http://metalarea.org/images/spectrogram/2018_Aug/b8040fd9b914220871c003aabdf6fd5b.png)
Input File: 02 - Tu aliado.mp3
Channels : 2
Sample Rate : 44100
Precision : 16-bit
Duration : 00:06:21.54 = 16825870 samples = 28615.4 CDDA sectors
File Size : 15.4M
Bit Rate : 323k
Sample Encoding: MPEG audio (layer I, II or III)
Comments :
Title=Tu aliado
Artist=Meremoth
Album=En el final del Camino
Tracknumber=2
Year=2018



Register


Go to the top of the page
  Insert nick Quick quote
+Quote Post
 
Start new topic
Replies (1 - 1)
post Aug 10 2018, 17:26:32
Post #2

Правь статус, ####!111
**************
Group: Металариец
Posts: 13,947
Releases: 9733
From: Г.Харьков
On Forums: 6 years 3 months
Thanks: 159706 time(s)
Unknown


Cloud Mail 320
Register
Go to the top of the page
  Insert nick Quick quote
+Quote Post

Reply to this topicStart new topic
1 User(s) are reading this topic (1 Guests and 0 Anonymous Users)
0 Members:

 



- Lo-Fi Version Support form
Copyrights and abuse reports form
Time is now: 20th August 2018 - 01:58:54