Welcome Guest ( Log In | Register )

> Releases Upload / Добавление релизов

Добавить релиз тут / Click here to add release
Рекомендованные обменники / Recommended file shares

 
Reply to this topicStart new topic
> Night Demon - Live Darkness [live] (2018), Heavy Metal (D4)
post Aug 10 2018, 07:35:39
Post #1

Маньяк
**********
Group: Металариец
Posts: 1,346
Releases: 1137
From: Одесса
On Forums: 10 years 2 months
Thanks: 8818 time(s)
Ukraine


(IMG:http://metalarea.org/images/audiocovers/2018_Aug/acov_tid309218_thumb.jpg)

*Artist: Night Demon
*Album: Live Darkness [live]
*Year: 2018
*Genre: Heavy Metal
*Country: United States (IMG:http://metalarea.org/forum/style_images/flags/United%20States.png)
*Format: mp3@CBR320kbps
*Size: 221MB

Tracklist:
Disc 1
1. Welcome to the Night
2. Full Speed Ahead
3. Ritual
4. Curse of the Damned
5. Dawn Rider
6. Save Me Now
7. Hallowed Ground
8. Maiden Hell
9. Mastermind
10. On Your Own
11. Life On the Run
Disc 2
12. The Howling Man
13. Black Widow
14. Ancient Evil
15. Satan
16. Evil Like a Knife (Midnight cover)
17. Stranger in the Room
18. Screams in the Night
19. Flight of the Manticore
20. The Chalice
21. Darkness Remains
22. Heavy Metal Heat
23. Night Demon
******************************
Total playing time: 1:32:16


(IMG:http://metalarea.org/images/youtube.png)

Extended info
Line - up:
Dusty Squires - Drums
Armand John Anthony - Guitars (Cirith Ungol (live), ex-Gygax)
Jarvis Leatherby - Vocals, Bass (Cirith Ungol, Jaguar (live), ex-Black Opal, ex-Jeff Hershey and the Heartbeats, ex-No Motiv)

Guest/Session:
Athenar - Vocals (disc 2, track 5) (Midnight, Mach II, ex-Boulder, ex-Sweet Roxx, ex-Demona (live), ex-Destructor, ex-Sloth, ex-Terminal Lovers, ex-Toxic Holocaust (live), ex-King Travolta, ex-Abdullah, ex-Hangnail, ex-Procreation, ex-Steaming Feces)

(IMG:https://www.metal-archives.com/images/3/5/4/0/3540358741_photo.jpg?5159)


Technical info
(IMG:http://metalarea.org/images/spectrogram/2018_Aug/7bd2b8c3274afa6d95f8620ce8d4a482.png)
Input File: 10 - On Your Own.mp3
Channels : 2
Sample Rate : 44100
Precision : 16-bit
Duration : 00:00:00.22 = 9746 samples = 16.5748 CDDA sectors
File Size : 8.85M
Bit Rate : 321M
Sample Encoding: MPEG audio (layer I, II or III)
Comments :
Title=On Your Own
Artist=Night Demon
Album=Live Darkness (Live)
Tracknumber=10
Year=2018
Genre=137



Register


Thanks:
Go to the top of the page
  Insert nick Quick quote
+Quote Post

Reply to this topicStart new topic
1 User(s) are reading this topic (1 Guests and 0 Anonymous Users)
0 Members:

 



- Lo-Fi Version Support form
Copyrights and abuse reports form
Time is now: 20th August 2018 - 01:58:42