Welcome Guest ( Log In | Register )

 
Reply to this topicStart new topic
> Hollow Prophet & Scumfuck - Scumprophet [split] (2018), Deathcore | Deathcore (D13)
post Aug 10 2018, 08:14:40
Post #1

Маньяк
**********
Group: Металариец
Posts: 1,419
Releases: 1207
From: Одесса
On Forums: 10 years 4 months
Thanks: 9410 time(s)
Ukraine


(IMG:http://metalarea.org/images/audiocovers/2018_Aug/acov_tid309219_thumb.jpg)

*Artist: Hollow Prophet & Scumfuck
*Album: Scumprophet [split]
*Year: 2018
*Genre: Deathcore | Deathcore
*Country: Unknown (IMG:http://metalarea.org/forum/style_images/flags/Unknown.png) | United States (IMG:http://metalarea.org/forum/style_images/flags/United%20States.png)
*Format: mp3@CBR320kbps
*Size: 45MB

Tracklist:
Hollow Prophet:
1. Carnage Amidst Carnality 04:00
2. Voracious Human Grubs 03:20
Scumfuck:
3. Sewage 03:04
4. Goblin 03:32
Hollow Prophet / Scumfuck:
5. Scumprophet 04:44
******************************
Total playing time: 18:40



Technical info
(IMG:http://metalarea.org/images/spectrogram/2018_Aug/3ebc4b399912142ddda5910d251c86c8.png)
Input File: 05. Hollow Prophet & Scumfuck - ScumProphet.mp3
Channels : 2
Sample Rate : 44100
Precision : 16-bit
Duration : 00:04:44.07 = 12527663 samples = 21305.5 CDDA sectors
File Size : 11.4M
Bit Rate : 321k
Sample Encoding: MPEG audio (layer I, II or III)
Comments :
Title=ScumProphet
Artist=Hollow Prophet & Scumfuck
Album=Scumprophet (Split)
Tracknumber=5
Year=2018
Genre=Deathcore



Register


Thanks:
Go to the top of the page
  Insert nick Quick quote
+Quote Post

Reply to this topicStart new topic
1 User(s) are reading this topic (1 Guests and 0 Anonymous Users)
0 Members:

 



- Lo-Fi Version Support form
Copyrights and abuse reports form
Time is now: 22nd October 2018 - 10:31:29