Welcome Guest ( Log In | Register )

> Releases Upload / Добавление релизов

Добавить релиз тут / Click here to add release
Рекомендованные обменники / Recommended file shares

 
Reply to this topicStart new topic
> Akasha - Consuming The Soul [ep] (2018), Black Metal
post Aug 10 2018, 08:33:21
Post #1

Маньяк
**********
Group: Металариец
Posts: 1,353
Releases: 1051
From: Prešov
On Forums: 4 years 4 months
Thanks: 24199 time(s)
Slovakia


(IMG:http://metalarea.org/images/audiocovers/2018_Aug/acov_tid309220_thumb.jpg)

*Artist: Akasha
*Album: Consuming The Soul [ep]
*Year: 2018
*Genre: Black Metal
*Country: United States (IMG:http://metalarea.org/forum/style_images/flags/United%20States.png)
*Format: mp3@CBR320kbps
*Size: 62MB

Tracklist:
1. Children ov the Nite 02:43
2. BloodSpell 05:21
3. Soul Consumption 04:39
4. Solar Eclipse 04:48
5. Fuck the Sun 03:13
6. Moonlite RituHell 05:06
******************************
Total playing time: 25:50



Technical info
(IMG:http://metalarea.org/images/spectrogram/2018_Aug/b8d0a21c916944c5dce6322f9f36566c.png)
Input File: 02. Bloodspell.mp3
Channels : 2
Sample Rate : 44100
Precision : 16-bit
Duration : 00:05:21.25 = 14166905 samples = 24093.4 CDDA sectors
File Size : 13.1M
Bit Rate : 325k
Sample Encoding: MPEG audio (layer I, II or III)
Comments :
Title=BloodSpell
Artist=Akasha
Album=Consuming The Soul
Tracknumber=02/06
Year=2018
Genre=Black Metal



Register


Go to the top of the page
  Insert nick Quick quote
+Quote Post

Reply to this topicStart new topic
2 User(s) are reading this topic (2 Guests and 0 Anonymous Users)
0 Members:

 



- Lo-Fi Version Support form
Copyrights and abuse reports form
Time is now: 21st August 2018 - 08:53:03