Welcome Guest ( Log In | Register )

 
Reply to this topicStart new topic
> Nekrohex - Solitary Death Force [demo] (2018), Black Metal
post Aug 10 2018, 08:38:14
Post #1

Маньяк
**********
Group: Металариец
Posts: 1,449
Releases: 1133
From: Prešov
On Forums: 4 years 8 months
Thanks: 26705 time(s)
Slovakia


(IMG:http://metalarea.org/images/audiocovers/2018_Aug/acov_tid309221_thumb.jpg)

*Artist: Nekrohex
*Album: Solitary Death Force [demo]
*Year: 2018
*Genre: Black Metal
*Country: United States (IMG:http://metalarea.org/forum/style_images/flags/United%20States.png)
*Format: mp3@CBR320kbps
*Size: 44MB

Tracklist:
1. Wraith Reflection 03:31
2. Shattered Skulls on Sharpened Spikes 03:28
3. Sacred Death March 03:41
4. Nexus of Nekrotic Nephilim 01:42
5. Obscured in Extinciton 03:32
******************************
Total playing time: 15:54



Technical info
(IMG:http://metalarea.org/images/spectrogram/2018_Aug/1d2ff9eb611e618a954d4b11e17d867b.png)
Input File: 02. Shattered Skulls On Sharpened Spikes.mp3
Channels : 2
Sample Rate : 44100
Precision : 16-bit
Duration : 00:03:28.57 = 9198069 samples = 15643 CDDA sectors
File Size : 8.56M
Bit Rate : 328k
Sample Encoding: MPEG audio (layer I, II or III)
Comments :
Title=Shattered Skulls On Sharpened Spikes
Artist=Nekrohex
Album=Solitary Death Force Demo MMXVIII
Tracknumber=02/05
Year=2018
Genre=Black Metal



Register


Go to the top of the page
  Insert nick Quick quote
+Quote Post

Reply to this topicStart new topic
1 User(s) are reading this topic (1 Guests and 0 Anonymous Users)
0 Members:

 



- Lo-Fi Version Support form
Copyrights and abuse reports form
Time is now: 13th December 2018 - 15:25:35