Welcome Guest ( Log In | Register )

> Releases Upload / Добавление релизов

Добавить релиз тут / Click here to add release
Рекомендованные обменники / Recommended file shares

 
Reply to this topicStart new topic
> Illhearted - Hate [ep] (2016), Deathcore
post Aug 10 2018, 09:25:07
Post #1

Мегаманьяк
***********
Group: Металариец
Posts: 1,584
Releases: 118
From: Omsk, Siberia
On Forums: 9 years 5 months
Thanks: 2523 time(s)
Russian Federation


(IMG:http://metalarea.org/images/audiocovers/2018_Aug/acov_tid309223_thumb.jpg)

*Artist: Illhearted
*Album: Hate [ep]
*Year: 2016
*Genre: Deathcore
*Country: United States (IMG:http://metalarea.org/forum/style_images/flags/United%20States.png)
*Format: mp3@CBR320kbps
*Size: 37MB

Tracklist:
1. Systematic Suicide 03:49
2. Hereafter (feat. Adam Keith) 02:27
3. Waste 03:31
4. Animosity 03:09
5. Malignity (feat. Cody Kuzmer) 02:44
******************************
Total playing time: 15:41



(IMG:http://metalarea.org/images/youtube.png)

Technical info
(IMG:http://metalarea.org/images/spectrogram/2018_Aug/2499219bb0d2d0533d14f42f94ed8e89.png)
Input File: 03 Waste.mp3
Channels : 2
Sample Rate : 44100
Precision : 16-bit
Duration : 00:03:31.08 = 9308672 samples = 15831.1 CDDA sectors
File Size : 8.57M
Bit Rate : 325k
Sample Encoding: MPEG audio (layer I, II or III)
Comments :
Title=Waste
Artist=Illhearted
Album=Hate
Tracknumber=3
Year=2016
Genre=Deathcore



Register


Thanks:
(1) Rosen,
Go to the top of the page
  Insert nick Quick quote
+Quote Post

Reply to this topicStart new topic
1 User(s) are reading this topic (1 Guests and 0 Anonymous Users)
0 Members:

 



- Lo-Fi Version Support form
Copyrights and abuse reports form
Time is now: 21st August 2018 - 08:55:46