Welcome Guest ( Log In | Register )

> Releases Upload / Добавление релизов

Добавить релиз тут / Click here to add release
Рекомендованные обменники / Recommended file shares

 
Reply to this topicStart new topic
> Oxygen Chapel - Pelagic Sentience [demo] (2018), Atmospheric Black Metal
post Aug 10 2018, 09:42:53
Post #1

Маньяк
**********
Group: Металариец
Posts: 1,353
Releases: 1051
From: Prešov
On Forums: 4 years 4 months
Thanks: 24199 time(s)
Slovakia


(IMG:http://metalarea.org/images/audiocovers/2018_Aug/acov_tid309224_thumb.jpg)

*Artist: Oxygen Chapel
*Album: Pelagic Sentience [demo]
*Year: 2018
*Genre: Atmospheric Black Metal
*Country: Canada (IMG:http://metalarea.org/forum/style_images/flags/Canada.png)
*Format: mp3@CBR320kbps
*Size: 59MB

Tracklist:
1. Ambiguine Delicacy 04:30
2. Transcendental Flume 04:20
3. Pelagic Sentience 02:47
4. Orthodox Hindrance 04:32
5. Avalon Polo (Velvet Cacoon cover) 06:11
******************************
Total playing time: 22:20



Technical info
(IMG:http://metalarea.org/images/spectrogram/2018_Aug/2405ff161bc7bc64fdbd07acb1f555f1.png)
Input File: 02. Transcendental Flume.mp3
Channels : 2
Sample Rate : 44100
Precision : 16-bit
Duration : 00:04:20.56 = 11490652 samples = 19541.9 CDDA sectors
File Size : 10.5M
Bit Rate : 323k
Sample Encoding: MPEG audio (layer I, II or III)
Comments :
Title=Transcendental Flume
Artist=Oxygen Chapel
Album=Pelagic Sentience (demo)
Tracknumber=02/05
Year=2018
Genre=Black Metal



Register


Go to the top of the page
  Insert nick Quick quote
+Quote Post

Reply to this topicStart new topic
2 User(s) are reading this topic (2 Guests and 0 Anonymous Users)
0 Members:

 



- Lo-Fi Version Support form
Copyrights and abuse reports form
Time is now: 21st August 2018 - 08:52:42